Правила форума

  • В этом разделе создание новых тем Запрещено.
  • Для создания новых тем пользуйтесь Корневым разделом DVD и HD фильмы.
Начать новую темуОтветить на тему  [ Сообщений: 10 ] 
Торрент файл
Размер: 8.21 GB • Зарегистрирован: 2 года 8 месяцев • Статус: Проверено
Скачан: 180 раз • Желающих скачать: 0 • Поблагодарили: 69 раз
 Раздают: 0  |  0 KB/s  ]   Качают: 0  |  0 KB/s  ] 
 Полного источника не было 1 день 3 часа 
Сообщения
 Добавлено: 2014-03-20 23:53
Аватара пользователя
Стаж: 9 лет 1 месяц
Сообщений: 8081
Спасибок: 122308
Лайков: 1195
Мастер тай-цзи / Man of Tai Chi

«No rules. No mercy. Pure fighting»

Изображение


Год выпуска: 2013
Страна: Изображение Китай Изображение Гонконг Изображение США
Жанр: боевик
Продолжительность: 01:45:15
Субтитры: Русские, английские
Перевод: Профессиональный (полное дублирование) [Лицензия]


Режиссер: Киану Ривз
Сценарий: Майкл Дж. Куни
Продюсер: Лимор Сиван, Ноа Вейнцвейг, Чжан Дасин
Оператор: Эллиот Дэвис
Композитор: Квонг Уинг Чан

В ролях: Киану Ривз, Ико Ювайс, Тайгер Ху Чен, Карен Мок, Джереми Меринас, Стивен Дасс, Майкл Чан, Брахим Ачаббаке, Хелен Леклерк, Оушен Хоу

Описание: Пекин. Амбициозный юноша Чэнь Линь-Ху по кличке «Тигр» подрабатывает скромным курьером, но после работы он превращается в молодую звезду боевых искусств, постепенно оттачивая свои навыки, следуя традициям Тайцзи Лин Кун. Обучившись размеренным и мирным движениям из Тайцзи, он приспособил их для бойцовских соревнований.

Донака Марк, скрываясь от гонконгской полиции, попадает в другой столичный мегаполис, где царит неразбериха и хаос, и открывает там подпольный бойцовский клуб, в котором реальные деньги можно заработать, побеждая противников в поединках без правил, транслируемых в прямом эфире богатым клиентам.

Подыскивая новую «звезду», Донака пытается приманить Тигра обещанием лёгкого заработка. Вхождение в этот мир выявляет самую тёмную сторону Чэнь Линь-Ху, но ему необходимы наличные. Его навыки помогают ему на ринге, но сможет ли он, сражаясь, сохранить в себе чистоту и добропорядочность?


Изображение Изображение

Раздача группы: Изображение

Качество: BDRip (1080p)
Формат: Matroska
Видео: MPEG-4 AVC, 10281 Кбит/с, 1920x800
Аудио №1: Русский (AC3, 48,0 КГц, 6 ch, 384 Кбит/c)
Аудио №2: Английский (DTS, 48,0 КГц, 6 ch, 1510 Кбит/c)

MediaInfo
Общее
Уникальный идентификатор : 253050841663009592030482620633959138167 (0xBE5FD1C056EB7D9DA64CC2F109208377)
Полное имя : C:\Фильмы\Master.tay-tszi.2013.P.BDRip.1080p.mkv
Формат : Matroska
Версия формата : Version 2
Размер файла : 8,21 Гбайт
Продолжительность : 1 ч. 45 м.
Общий поток : 11,2 Мбит/сек
Название фильма : NNPORTAL
Дата кодирования : UTC 2014-03-20 20:32:35
Программа кодирования : mkvmerge v5.7.0 ('The Whirlwind') built on Jul 29 2012 15:12:35
Библиотека кодирования : libebml v1.2.3 + libmatroska v1.3.0

Видео
Идентификатор : 1
Формат : AVC
Формат/Информация : Advanced Video Codec
Профиль формата : High@L4.1
Параметр CABAC формата : Да
Параметр ReFrames формата : 5 кадров
Идентификатор кодека : V_MPEG4/ISO/AVC
Продолжительность : 1 ч. 45 м.
Битрейт : 9268 Кбит/сек
Ширина : 1920 пикселей
Высота : 796 пикселей
Соотношение сторон : 2,40:1
Режим частоты кадров : Постоянный
Частота кадров : 23,976 кадра/сек
Цветовое пространство : YUV
Субдискретизация насыщенности : 4:2:0
Битовая глубина : 8 бит
Тип развёртки : Прогрессивная
Бит/(Пиксели*Кадры) : 0.253
Размер потока : 6,65 Гбайт (81%)
Библиотека кодирования : x264 core 138 r2356 a1d3d17
Настройки программы : cabac=1 / ref=5 / deblock=1:-3:-3 / analyse=0x3:0x113 / me=umh / subme=10 / psy=1 / psy_rd=1.00:0.05 / mixed_ref=1 / me_range=32 / chroma_me=1 / trellis=2 / 8x8dct=1 / cqm=0 / deadzone=21,11 / fast_pskip=0 / chroma_qp_offset=-2 / threads=18 / lookahead_threads=1 / sliced_threads=0 / nr=0 / decimate=1 / interlaced=0 / bluray_compat=0 / constrained_intra=0 / bframes=4 / b_pyramid=2 / b_adapt=2 / b_bias=0 / direct=3 / weightb=1 / open_gop=0 / weightp=2 / keyint=250 / keyint_min=23 / scenecut=40 / intra_refresh=0 / rc=2pass / mbtree=0 / bitrate=9268 / ratetol=1.0 / qcomp=0.70 / qpmin=0 / qpmax=69 / qpstep=4 / cplxblur=20.0 / qblur=0.5 / ip_ratio=1.40 / pb_ratio=1.30 / aq=2:1.00
Язык : English
Default : Нет
Forced : Нет

Аудио #1
Идентификатор : 2
Формат : AC-3
Формат/Информация : Audio Coding 3
Расширение режима : CM (complete main)
Параметр Endianness формата : Big
Идентификатор кодека : A_AC3
Продолжительность : 1 ч. 45 м.
Вид битрейта : Постоянный
Битрейт : 384 Кбит/сек
Каналы : 6 каналов
Расположение каналов : Front: L C R, Side: L R, LFE
Частота : 48,0 КГц
Битовая глубина : 16 бит
Метод сжатия : С потерями
Размер потока : 289 Мбайт (3%)
Язык : Russian
Default : Да
Forced : Нет

Аудио #2
Идентификатор : 3
Формат : DTS
Формат/Информация : Digital Theater Systems
Режим : 16
Параметр Endianness формата : Big
Идентификатор кодека : A_DTS
Продолжительность : 1 ч. 45 м.
Вид битрейта : Постоянный
Битрейт : 1509 Кбит/сек
Каналы : 6 каналов
Расположение каналов : Front: L C R, Side: L R, LFE
Частота : 48,0 КГц
Битовая глубина : 24 бит
Метод сжатия : С потерями
Задержка видео : 11 мс.
Размер потока : 1,11 Гбайт (14%)
Заголовок : DTS.1509.Kbps (6ch) English
Язык : English
Default : Нет
Forced : Нет

Текст #1
Идентификатор : 4
Формат : UTF-8
Идентификатор кодека : S_TEXT/UTF8
Идентификатор кодека/Информация : UTF-8 Plain Text
Заголовок : Russian (Full)
Язык : Russian
Default : Нет
Forced : Нет

Текст #2
Идентификатор : 5
Формат : UTF-8
Идентификатор кодека : S_TEXT/UTF8
Идентификатор кодека/Информация : UTF-8 Plain Text
Заголовок : English (SDH)
Язык : English
Default : Нет
Forced : Нет

Текст #3
Идентификатор : 6
Формат : UTF-8
Идентификатор кодека : S_TEXT/UTF8
Идентификатор кодека/Информация : UTF-8 Plain Text
Заголовок : English (SDH-Colored)
Язык : English
Default : Нет
Forced : Нет

Меню
00:00:00.000 : en:00:00:00.000
00:04:07.664 : en:00:04:07.664
00:09:17.182 : en:00:09:17.182
00:15:33.391 : en:00:15:33.391
00:20:25.558 : en:00:20:25.558
00:27:11.296 : en:00:27:11.296
00:33:31.176 : en:00:33:31.176
00:39:35.957 : en:00:39:35.957
00:46:23.990 : en:00:46:23.990
00:54:39.985 : en:00:54:39.985
01:02:01.343 : en:01:02:01.343
01:10:25.221 : en:01:10:25.221
01:16:37.927 : en:01:16:37.927
01:20:23.652 : en:01:20:23.652
01:27:12.477 : en:01:27:12.477
01:37:58.247 : en:01:37:58.247
Свернуть
Скриншоты
Изображение
Изображение
Изображение
Изображение
Свернуть
Не в сети
Профиль  
 Добавлено: 2014-03-21 00:01 (спустя 8 минут)
Аватара пользователя
Стаж: 8 лет 10 месяцев
Сообщений: 1170
Спасибок: 1294
Лайков: 7
Ривз и в таком снимается?!
Не в сети
Профиль  
 Добавлено: 2014-03-21 13:16 (спустя 13 часов)
Аватара пользователя
Стаж: 9 лет
Сообщений: 1403
Спасибок: 1
треш или норм?
Не в сети
Профиль  
 Добавлено: 2014-03-21 13:17 (спустя 1 минута)
Аватара пользователя
Стаж: 8 лет 3 месяца
Сообщений: 231
Спасибок: 29

Snork:

Ривз и в таком снимается?!
Ривз такое снимает
Не в сети
Профиль  
 Добавлено: 2014-03-21 14:36 (спустя 1 час 18 минут)
Стаж: 7 лет 3 месяца
Сообщений: 80
Спасибок: 88
ого неожиданно)
Не в сети
Профиль  
 Добавлено: 2014-03-21 15:42 (спустя 1 час 5 минут)
Аватара пользователя
Стаж: 7 лет 3 месяца
Возраст: 24
Сообщений: 861
Лайков: 17
Избранный теперь тренирует Избранных? :-D
Не в сети
Профиль  
 Добавлено: 2014-03-22 07:43 (спустя 16 часов)
Аватара пользователя
Стаж: 8 лет 10 месяцев
Возраст: 37
Сообщений: 136
Спасибок: 97
Лайков: 3
а я посмотрю
Не в сети
Профиль  
 Добавлено: 2014-03-22 10:15 (спустя 2 часа 31 минута)
Аватара пользователя
Стаж: 8 лет 3 месяца
Возраст: 29
Сообщений: 109
Спасибок: 3
посмотрел в качестве 2гб фильма =) мне понравилось, нормальный такой фильм =) как всегда добрая философия драчек =)
_________________
Изображение
Не в сети
Профиль  
 Добавлено: 2014-03-26 16:07 (спустя 4 дня)
Аватара пользователя
Стаж: 9 лет
Сообщений: 1403
Спасибок: 1
куета..пожалел, что скачал
Не в сети
Профиль  
 Добавлено: 2014-04-04 19:01 (спустя 9 дней)
Аватара пользователя
Стаж: 6 лет 8 месяцев
Возраст: 29
Сообщений: 50
Спасибок: 1
Не знаю как Вы а Мне оч понравилось !!!
_________________
Изображение Изображение
Не в сети
Профиль  
Начать новую темуОтветить на тему  [ Сообщений: 10 ] 
Вы не можете начинать темы
Вы не можете отвечать на сообщения
Вы не можете редактировать свои сообщения
Вы не можете удалять свои сообщения