Правила форума

  • В этом разделе создание новых тем Запрещено.
  • Для создания новых тем пользуйтесь Корневым разделом DVD и HD фильмы.
Начать новую темуОтветить на тему  [ 1 сообщение ] 
Торрент файл
Размер: 13.88 GB • Зарегистрирован: 3 года 5 месяцев • Статус: Проверено
Скачан: 58 раз • Желающих скачать: 0 • Поблагодарили: 22 раза
 Раздают: 0  |  0 KB/s  ]   Качают: 0  |  0 KB/s  ] 
 Полного источника не было 2 года 4 месяца 
Сообщения
 Добавлено: 2013-06-21 18:47
Аватара пользователя
Стаж: 9 лет
Сообщений: 7899
Спасибок: 122083
Лайков: 1190
Мёбиус / Möbius

«Можно играть в политику, играть с деньгами, с доверием, но только не с любовью»

Изображение


Год выпуска: 2013
Страна: Изображение Франция Изображение Бельгия Изображение Люксембург
Жанр: триллер, драма
Продолжительность: 01:43:55
Перевод: Профессиональный (полное дублирование) [Лицензия]


Режиссер: Эрик Рошан
Сценарий: Эрик Рошан
Продюсер: Кристоф Сервони, Эрик Жюериан, Матиас Рубин
Оператор: Пьер Новион
Композитор: Джонатан Морали

В ролях: Жан Дюжарден, Сесиль Де Франс, Эмили Декьенн, Алексей Горбунов, Владимир Меньшов, Тим Рот, Джон Линч, Бранка Катич, Дин Константин Гэйгани, Дмитрий Назаров

Описание: Жестокий и хладнокровный офицер с мрачным характером и проницательным умом, тайный агент ФСБ по кличке Моисей, ведет дело крупного российского олигарха, которого подозревают в фантастических финансовых махинациях. Кажется, он уже наступил на хвост змеи, но тут в его жизнь врывается страсть. Он, никогда в жизни не знавший нежных чувств, влюбляется в Алису, работающую трейдером в банковской структуре преступного олигарха. Что будет утром, когда окончится горячая любовная ночь?

Изображение Изображение

Раздача группы: Изображение

Качество: BDRip (1080p)
Формат: Matroska
Видео: MPEG4 AVC, 16500 Кбит/с, 1920x800, 23.976 кадр/с
Аудио №1: Русский (AC3, 48,0 КГц, 6 ch, 384 Кбит/c)
Аудио №2: Французский (DTS, 48,0 КГц, 6 ch, 1510 Кбит/c)

MediaInfo
Общее
Уникальный идентификатор : 215735113482185224386002150406908683619 (0xA24D124E8D5EE9C79D9AB2C039B22563)
Полное имя : C:\Фильмы\Mobius.2013.1080p.BluRay.x264.Rus.R.G.Daredevil.mkv
Формат : Matroska
Версия формата : Version 2
Размер файла : 13,9 Гбайт
Продолжительность : 1 ч. 48 м.
Общий поток : 18,4 Мбит/сек
Дата кодирования : UTC 2013-06-21 12:33:37
Программа кодирования : mkvmerge v4.9.1 ('Ich will') built on Jul 11 2011 23:53:15
Библиотека кодирования : libebml v1.2.1 + libmatroska v1.1.1

Видео
Идентификатор : 1
Формат : AVC
Формат/Информация : Advanced Video Codec
Профиль формата : High@L4.1
Параметр CABAC формата : Да
Параметр ReFrames формата : 5 кадров
Идентификатор кодека : V_MPEG4/ISO/AVC
Продолжительность : 1 ч. 48 м.
Битрейт : 16,5 Мбит/сек
Ширина : 1920 пикселей
Высота : 800 пикселей
Соотношение сторон : 2,40:1
Режим частоты кадров : Постоянный
Частота кадров : 24,000 кадра/сек
Цветовое пространство : YUV
Субдискретизация насыщенности : 4:2:0
Битовая глубина : 8 бит
Тип развёртки : Прогрессивная
Бит/(Пиксели*Кадры) : 0.448
Размер потока : 12,2 Гбайт (88%)
Библиотека кодирования : x264 core 132 r2323+704+51 d571b1c tMod [8-bit@4:2:0 X86_64]
Настройки программы : cabac=1 / ref=5 / deblock=1:-3:-3 / analyse=0x3:0x113 / me=umh / subme=11 / psy=1 / fade_compensate=0.00 / psy_rd=1.05:0.00 / mixed_ref=1 / me_range=32 / chroma_me=1 / trellis=2 / 8x8dct=1 / cqm=0 / deadzone=21,11 / fast_pskip=0 / chroma_qp_offset=-2 / threads=36 / lookahead_threads=6 / sliced_threads=0 / nr=0 / decimate=0 / interlaced=0 / bluray_compat=0 / constrained_intra=0 / fgo=0 / bframes=8 / b_pyramid=2 / b_adapt=2 / b_bias=0 / direct=3 / weightb=1 / open_gop=0 / weightp=2 / keyint=240 / keyint_min=24 / scenecut=40 / intra_refresh=0 / rc_lookahead=240 / rc=2pass / mbtree=1 / bitrate=16500 / ratetol=1.0 / qcomp=0.70 / qpmin=0 / qpmax=69 / qpstep=4 / cplxblur=20.0 / qblur=0.5 / ip_ratio=1.20 / aq=4:0.85 / aq-sensitivity=10.00 / aq-factor=1.00:1.00:1.00 / aq2=0 / aq3=0
Язык : English
Default : Да
Forced : Нет

Аудио #1
Идентификатор : 2
Формат : DTS
Формат/Информация : Digital Theater Systems
Режим : 16
Параметр Endianness формата : Big
Идентификатор кодека : A_DTS
Продолжительность : 1 ч. 48 м.
Вид битрейта : Постоянный
Битрейт : 1509 Кбит/сек
Каналы : 6 каналов
Расположение каналов : Front: L C R, Side: L R, LFE
Частота : 48,0 КГц
Битовая глубина : 24 бит
Метод сжатия : С потерями
Размер потока : 1,14 Гбайт (8%)
Язык : English
Default : Нет
Forced : Нет

Аудио #2
Идентификатор : 3
Формат : AC-3
Формат/Информация : Audio Coding 3
Расширение режима : CM (complete main)
Параметр Endianness формата : Big
Идентификатор кодека : A_AC3
Продолжительность : 1 ч. 48 м.
Вид битрейта : Постоянный
Битрейт : 384 Кбит/сек
Каналы : 6 каналов
Расположение каналов : Front: L C R, Side: L R, LFE
Частота : 48,0 КГц
Битовая глубина : 16 бит
Метод сжатия : С потерями
Задержка видео : 14 мс.
Размер потока : 297 Мбайт (2%)
Язык : Russian
Default : Да
Forced : Нет
Свернуть
Скриншоты
Изображение
Изображение
Изображение
Изображение
Свернуть
В сети
Профиль  
Начать новую темуОтветить на тему  [ 1 сообщение ] 
Вы не можете начинать темы
Вы не можете отвечать на сообщения
Вы не можете редактировать свои сообщения
Вы не можете удалять свои сообщения