Правила форума

  • В этом разделе создание новых тем Запрещено.
  • Для создания новых тем пользуйтесь Корневым разделом DVD и HD фильмы.
Начать новую темуОтветить на тему  [ 1 сообщение ] 
Торрент файл
Размер: 6.54 GB • Зарегистрирован: 4 года 1 месяц • Статус: Проверено
Скачан: 84 раза • Желающих скачать: 0 • Поблагодарили: 19 раз
 Раздают: 0  |  0 KB/s  ]   Качают: 0  |  0 KB/s  ] 
 Полного источника не было 2 года 6 месяцев 
Сообщения
 Добавлено: 2012-10-03 20:53
Модератор
Аватара пользователя
Стаж: 8 лет
Сообщений: 1991
Спасибок: 129860
Лайков: 20
Медальон / Stolen


«12 часов, $10 миллионов, 1 похищенная дочь»



Изображение
Год выпуска: 2012
Страна: Изображение США
Жанр: боевик, триллер
Продолжительность:
01:35:50

Перевод: Профессиональный (полное дублирование) [лицензия]

Режиссер: Саймон Уэст
Сценарий: Дэвид Гуггенхейм
Продюсер: Рене Бессон, Мэттью Джойнс, Джесси Кеннеди, Джиб Полемус, Тревор Шорт
Оператор: Джим Уайтакер
Композитор: Марк Айшем

В ролях:
Николас Кейдж (Will Montgomery), Джош Лукас (Vincent), Дэнни Хьюстон (Tim Harlend), Малин Акерман (Riley Jeffers), Сами Гэйл (Alison Loeb), М. К. Гейни (Reginald), Марк Вэлли (Fletcher), Эдрик Браун (Jacobs), Бэрри Шебака Хенли (Reginald), Дж.Д. Эвермор (Rookie), Гаррет Хайнс (Aaron), Кевин Фостер (Motorcycle Cop)
Дублёры: Александр Рахленко (Will Montgomery) (Will Montgomery), Михаил Георгиу (Tim Harlend) (Tim Harlend), Александра Остроухова (Alison Loeb) (Alison Loeb), Иван Жарков

Описание: Неизвестные похищают дочь бывшего вора в законе, решившего завязать с темным прошлым. Похитители сообщают, что держат девочку-подростка в багажнике такси. У отца есть всего несколько часов, чтобы отыскать киднепперов и спасти ребенка.


Изображение: 5.851 (1 774)
Изображение: 5.10 (919)

MPAA: Изображение - Лицам до 17 лет обязательно присутствие взрослого

Доп. Информация
Бюджет: $35 000 000
Сборы в США: $304 318
Сборы в России: $2 429 386
Мировая премьера: 6 сентября 2012
Изображение Релиз на DVD: 9 октября 2012, «Парадиз Медиа»
Изображение Релиз на Blu-ray: 9 октября 2012, «Парадиз Медиа»

Свернуть


Качество: BDRip 720p R5

Формат: MKV
Видео: AVC; 1280x720 (16:9); 6559 Kbps; 24 fps; 0,297 bpp
Аудио №1: русский; DTS; 1510 Kbps; CBR; 6 ch; 16 bit
Аудио №2: английский; DTS; 1510 Kbps; CBR; 6 ch; 16 bit
Субтитры: русские



Знаете ли Вы, что...
  • Клайв Оуэн и Джейсон Стэйтем претендовали на главную роль в фильме.
Свернуть
BDInfo
General
Unique ID : 178874533276304312768419890845989250451 (0x8691FB63DC7E5571A84A0271FEA0A593)
Complete name : Medalion.2012.D.BDRip.720p.IRONCLUB.mkv
Format : Matroska
Format version : Version 2
File size : 6.54 GiB
Duration : 1h 35mn
Overall bit rate : 9 773 Kbps
Movie name : IRONCLUB
Encoded date : UTC 2012-10-03 15:34:59
Writing application : mkvmerge v4.9.1 ('Ich will') сборка от Jul 11 2011 23:53:15
Writing library : libebml v1.2.1 + libmatroska v1.1.1

Video
ID : 1
Format : AVC
Format/Info : Advanced Video Codec
Format profile : High@L5.0
Format settings, CABAC : Yes
Format settings, ReFrames : 12 frames
Codec ID : V_MPEG4/ISO/AVC
Duration : 1h 35mn
Bit rate : 6 559 Kbps
Width : 1 280 pixels
Height : 720 pixels
Display aspect ratio : 16:9
Frame rate : 24.000 fps
Color space : YUV
Chroma subsampling : 4:2:0
Bit depth : 8 bits
Scan type : Progressive
Bits/(Pixel*Frame) : 0.297
Stream size : 4.39 GiB (67%)
Title : Stolen 2012 720p Bluray DTS x264-IRONCLUB
Writing library : x264 core 128 r2216 198a7ea
Encoding settings : cabac=1 / ref=12 / deblock=1:-3:-3 / analyse=0x3:0x113 / me=umh / subme=11 / psy=1 / psy_rd=1.10:0.00 / mixed_ref=1 / me_range=48 / chroma_me=1 / trellis=2 / 8x8dct=1 / cqm=0 / deadzone=21,11 / fast_pskip=0 / chroma_qp_offset=-2 / threads=12 / lookahead_threads=2 / sliced_threads=0 / nr=0 / decimate=1 / interlaced=0 / bluray_compat=0 / constrained_intra=0 / bframes=9 / b_pyramid=2 / b_adapt=2 / b_bias=0 / direct=3 / weightb=1 / open_gop=0 / weightp=2 / keyint=250 / keyint_min=24 / scenecut=40 / intra_refresh=0 / rc_lookahead=40 / rc=crf / mbtree=0 / crf=18.0 / qcomp=0.60 / qpmin=10 / qpmax=69 / qpstep=4 / vbv_maxrate=50000 / vbv_bufsize=62500 / crf_max=0.0 / nal_hrd=none / ip_ratio=1.40 / pb_ratio=1.30 / aq=1:1.00
Language : English
Default : Yes
Forced : Yes
Matrix coefficients : BT.709-5, BT.1361, IEC 61966-2-4 709, SMPTE RP177

Audio #1
ID : 2
Format : DTS
Format/Info : Digital Theater Systems
Codec ID : A_DTS
Duration : 1h 35mn
Bit rate mode : Constant
Bit rate : 1 510 Kbps
Channel(s) : 6 channels
Channel positions : Front: L C R, Side: L R, LFE
Sampling rate : 48.0 KHz
Bit depth : 16 bits
Compression mode : Lossy
Stream size : 1.01 GiB (15%)
Title : DTS 5.1 @ 1536 kbps - Dub, BD RUS
Language : Russian
Default : Yes
Forced : Yes

Audio #2
ID : 3
Format : DTS
Format/Info : Digital Theater Systems
Codec ID : A_DTS
Duration : 1h 35mn
Bit rate mode : Constant
Bit rate : 1 510 Kbps
Channel(s) : 6 channels
Channel positions : Front: L C R, Side: L R, LFE
Sampling rate : 48.0 KHz
Bit depth : 16 bits
Compression mode : Lossy
Stream size : 1.01 GiB (15%)
Title : DTS 5.1 @ 1536 kbps
Language : English
Default : No
Forced : No

Text
ID : 4
Format : UTF-8
Codec ID : S_TEXT/UTF8
Codec ID/Info : UTF-8 Plain Text
Language : Russian
Default : No
Forced : No

Menu
00:00:00.000 : en:Chapter 01
00:08:38.916 : en:Chapter 02
00:15:28.083 : en:Chapter 03
00:20:24.708 : en:Chapter 04
00:26:46.083 : en:Chapter 05
00:33:46.500 : en:Chapter 06
00:43:51.083 : en:Chapter 07
00:51:12.916 : en:Chapter 08
00:59:44.416 : en:Chapter 09
01:08:38.291 : en:Chapter 10
01:18:27.916 : en:Chapter 11
01:27:07.500 : en:Chapter 12
Свернуть
Скриншоты
Изображение
Изображение
Изображение
Изображение
Свернуть

_________________
Себе ты можешь не качать, но раздавать другим обязан!
Не в сети
Профиль  
Начать новую темуОтветить на тему  [ 1 сообщение ] 
Вы не можете начинать темы
Вы не можете отвечать на сообщения
Вы не можете редактировать свои сообщения
Вы не можете удалять свои сообщения