Правила форума

  • В этом разделе создание новых тем Запрещено.
  • Для создания новых тем пользуйтесь Корневым разделом DVD и HD фильмы.
Начать новую темуОтветить на тему  [ Сообщений: 3 ] 
Торрент файл
Размер: 9.04 GB • Зарегистрирован: 4 года 2 месяца • Статус: Проверено
Скачан: 460 раз • Желающих скачать: 0 • Поблагодарили: 70 раз
 Раздают: 0  |  0 KB/s  ]   Качают: 0  |  0 KB/s  ] 
 Полного источника не было 1 год 10 месяцев 
Сообщения
 Добавлено: 2012-10-03 23:33
Модератор
Аватара пользователя
Стаж: 8 лет 7 месяцев
Сообщений: 4965
Спасибок: 110254
Лайков: 18
Изображение

Медальон / Stolen


Год выпуска: 2012
Страна: США, Millennium Films
Слоган: «12 часов, $10 миллионов, 1 похищенная дочь»

Жанр: боевик, триллер
Продолжительность: 01:35:50
Перевод: Профессиональный (полное дублирование)
Субтитры: Русские
Режиссер: Саймон Уэст
Сценарий: Дэвид Гуггенхейм
Продюсер: Рене Бессон, Мэттью Джойнс, Джесси Кеннеди
Оператор: Джим Уайтакер
Композитор: Марк Айшем

В ролях: Николас Кейдж, Джош Лукас, Дэнни Хьюстон, Малин Акерман, Сами Гэйл, М. К. Гейни, Марк Вэлли, Эдрик Браун, Бэрри Шебака Хенли, Дж.Д. Эвермор
Сборы в России: $2 429 386
Сборы в США: $304 318
Мировая премьера: 6 сентября 2012
Релиз на DVD: 9 октября 2012, «Парадиз Медиа»
Релиз на Blu-ray: 9 октября 2012, «Парадиз Медиа»
Описание: Неизвестные похищают дочь бывшего вора в законе, решившего завязать с темным прошлым. Похитители сообщают, что держат девочку-подростка в багажнике такси. У отца есть всего несколько часов, чтобы отыскать киднепперов и спасти ребенка.
Изображение 5.2/10 (1,085 users) Изображение 5.877 (1,551)
"NFO"
Format : Matroska
Format version : Version 2
File size : 9.04 GiB
Duration : 1h 35mn
Overall bit rate : 13.5 Mbps
Movie name : CMEGroup_BLUEBIRD
Encoded date : UTC 2012-10-03 14:57:29
Writing application : mkvmerge v5.8.0 ('No Sleep / Pillow') built on Sep 2 2012 15:37:04
Writing library : libebml v1.2.3 + libmatroska v1.3.0

Video
ID : 1
Format : AVC
Format/Info : Advanced Video Codec
Format profile : High@L4.1
Format settings, CABAC : Yes
Format settings, ReFrames : 4 frames
Codec ID : V_MPEG4/ISO/AVC
Duration : 1h 35mn
Bit rate : 10.5 Mbps
Width : 1 920 pixels
Height : 1 080 pixels
Display aspect ratio : 16:9
Frame rate : 24.000 fps
Color space : YUV
Chroma subsampling : 4:2:0
Bit depth : 8 bits
Scan type : Progressive
Bits/(Pixel*Frame) : 0.211
Stream size : 6.84 GiB (76%)
Writing library : x264 core 125 r2208 d9d2288
Encoding settings : cabac=1 / ref=4 / deblock=1:-3:-3 / analyse=0x3:0x113 / me=umh / subme=10 / psy=1 / psy_rd=1.00:0.00 / mixed_ref=1 / me_range=24 / chroma_me=1 / trellis=2 / 8x8dct=1 / cqm=0 / deadzone=21,11 / fast_pskip=1 / chroma_qp_offset=-2 / threads=6 / lookahead_threads=1 / sliced_threads=0 / nr=0 / decimate=1 / interlaced=0 / bluray_compat=0 / constrained_intra=0 / bframes=6 / b_pyramid=2 / b_adapt=2 / b_bias=0 / direct=2 / weightb=0 / open_gop=0 / weightp=2 / keyint=240 / keyint_min=24 / scenecut=40 / intra_refresh=0 / rc_lookahead=40 / rc=2pass / mbtree=1 / bitrate=10500 / ratetol=1.0 / qcomp=0.60 / qpmin=0 / qpmax=69 / qpstep=4 / cplxblur=20.0 / qblur=0.5 / ip_ratio=1.40 / aq=1:1.00
Language : English
Default : Yes
Forced : No

Audio #1
ID : 2
Format : DTS
Format/Info : Digital Theater Systems
Codec ID : A_DTS
Duration : 1h 35mn
Bit rate mode : Constant
Bit rate : 1 510 Kbps
Channel(s) : 6 channels
Channel positions : Front: L C R, Side: L R, LFE
Sampling rate : 48.0 KHz
Bit depth : 24 bits
Compression mode : Lossy
Stream size : 1.01 GiB (11%)
Language : Russian
Default : Yes
Forced : No

Audio #2
ID : 3
Format : DTS
Format/Info : Digital Theater Systems
Codec ID : A_DTS
Duration : 1h 35mn
Bit rate mode : Constant
Bit rate : 1 510 Kbps
Channel(s) : 6 channels
Channel positions : Front: L C R, Side: L R, LFE
Sampling rate : 48.0 KHz
Bit depth : 24 bits
Compression mode : Lossy
Stream size : 1.01 GiB (11%)
Language : English
Default : No
Forced : No

Text
ID : 4
Format : UTF-8
Codec ID : S_TEXT/UTF8
Codec ID/Info : UTF-8 Plain Text
Language : Russian
Default : Yes
Forced : No

Menu
00:00:00.000 : :Chapter 01
00:08:38.916 : :Chapter 02
00:15:28.083 : :Chapter 03
00:20:24.708 : :Chapter 04
00:26:46.083 : :Chapter 05
00:33:46.500 : :Chapter 06
00:43:51.083 : :Chapter 07
00:51:12.916 : :Chapter 08
00:59:44.416 : :Chapter 09
01:08:38.291 : :Chapter 10
01:18:27.916 : :Chapter 11
01:27:07.500 : :Chapter 12
Свернуть


Релиз от: Изображение
Релиз группа: Изображение
*Сохранены оригинальные чаптеры как на Blu-Ray
Качество: BDRip 1080p
Формат: MKV

Видео: MPEG-4 AVC, 10.5 Мбит/с, 1920x1080
Аудио №1: Russian, DTS, 6 ch, 1536 Кбит/с
Аудио №2: English, DTS, 6 ch, 1536 Кбит/с

"Скриншоты"

Изображение

Изображение

Изображение

Свернуть
_________________
Изображение Изображение Изображение
Билайн / АДС добавляйте ретрекер, чтобы качать на скорости 100 Мбит/с
Cкрытый текст
Изображение
Свернуть
Не в сети
Профиль  
 Добавлено: 2012-10-08 18:40 (спустя 4 дня)
Стаж: 8 лет 5 месяцев
Сообщений: 19
Прикольный фильмец, Николас всегда хорошо играет, когда из плохого превращается в хорошего, при этом оставаясь как бы плохим))))
Не в сети
Профиль  
 Добавлено: 2012-10-11 22:36 (спустя 3 дня)
Стаж: 4 года 2 месяца
Сообщений: 1
дайте скорости плиз!
Не в сети
Профиль  
Начать новую темуОтветить на тему  [ Сообщений: 3 ] 
Вы не можете начинать темы
Вы не можете отвечать на сообщения
Вы не можете редактировать свои сообщения
Вы не можете удалять свои сообщения