Правила форума

  • В этом разделе создание новых тем Запрещено.
  • Для создания новых тем пользуйтесь Корневым разделом DVD и HD фильмы.
Начать новую темуОтветить на тему  [ Сообщений: 3 ] 
Торрент файл
Размер: 4.65 GB • Зарегистрирован: 5 лет 8 месяцев • Статус: Проверено
Скачан: 179 раз • Желающих скачать: 0 • Поблагодарили: 27 раз
 Раздают: 0  |  0 KB/s  ]   Качают: 0  |  0 KB/s  ] 
 Полного источника не было 4 дня 
Сообщения
 Добавлено: 2011-03-25 19:21
Аватара пользователя
Стаж: 8 лет
Возраст: 23
Сообщений: 2472
Спасибок: 27962
Лайков: 2
Механик / The Mechanic


«Someone has to fix the problems.»



Изображение
Год выпуска: 2010
Страна: Изображение США, Millennium Films, Nu Image Entertainment GmbH
Жанр: боевик, триллер, драма
Продолжительность:
01:32:12

Перевод: Профессиональный (полное дублирование) [лицензия]

Режиссер: Саймон Уэст
Сценарий: Ричард Уэнк, Льюис Джон Карлино
Продюсер: Роб Кауэн, Марси Дрогин, Авэ Лернер, Роберт Чартофф, Джон Томпсон
Оператор: Эрик Шмидт
Композитор: Марк Айшем

В ролях:
Джейсон Стэтхэм (Arthur Bishop), Бен Фостер (Steve McKenna), Тони Голдуин (Dean), Дональд Сазерленд (Harry McKenna), Джефф Чейз (Burke), Мини Анден (Sarah), Джеймс Логан (Jorge Lara), Эдди Дж. Фернандез (Lara's Guard), Джошуа Бриджуотер (Car Jacker), Джон МакКоннелл (Vaughn), Криста Кэмпбелл (Kelly), Джоэль Дэвис (Husband)
Дублёры: Владимир Зайцев (Arthur Bishop) (Arthur Bishop), Александр Гаврилин (Steve McKenna) (Steve McKenna), Василий Дахненко (Dean) (Dean), Петр Тобилевич (Harry McKenna) (Harry McKenna), Михаил Георгиу (Burke) (Burke), Татьяна Шитова (Sarah) (Sarah), Константин Карасик (Vaughn) (Vaughn), Владимир Герасимов (Henry) (Henry)

Описание: Артур Бишоп - «Механик», высокопрофессиональный безукоризненный киллер, который всегда работает по правилам - «чисто» и без следов. Такая работа требует полного самообладания и беспристрастности, и в своём деле ему нет равных. Бишоп всегда работал один, но ему пришлось стать наставником молодого и отчаянного Стива. Методичный профессионал и импульсивный ученик теперь на пару «устраняют проблемы», но рано или поздно они сойдутся в смертельной схватке...


Изображение: 6.677 (13 146)
Изображение: 6.60 (11 179)

MPAA: Изображение - Лицам до 17 лет обязательно присутствие взрослого

Доп. Информация

Бюджет: $40 000 000
Сборы в США: $29 019 410
Сборы в России: $8 208 998
Сборы в мире: $45 736 702
Мировая премьера: 21 января 2011
Изображение Релиз на DVD: 25 февраля 2011, «Монолит»
Изображение Релиз на Blu-ray: 22 марта 2011, «Монолит»

Свернуть

Качество: BDRip 720p R5

Формат: MKV
Видео: AVC; 1280x720 (16:9); 6564 Kbps; 24 fps; 0,297 bpp
Аудио: Russian: AC3, 448 kb/s (6 ch) / DTS, 1152 kb/s (6 ch)
Размер: 4.65 GB
Изображение


Знаете ли Вы, что...
  • В кадрах, записанных камерами слежения на автозаправочной станции (в финале фильма), фигурирует дата 28-е января 2011-го года.
Свернуть
BDInfo

Format : Matroska
File size : 4.65 GiB
Duration : 1h 32mn
Overall bit rate : 7 225 Kbps
Encoded date : UTC 2011-03-25 13:48:24
Writing application : mkvmerge v3.4.0 ('Rapunzel') сборка от May 15 2010 09:38:20
Writing library : libebml v0.8.0 + libmatroska v0.9.0
Video #1
ID : 1
Format : AVC
Format/Info : Advanced Video Codec
Format profile : High@L4.1
Format settings, CABAC : Yes
Format settings, ReFrames : 8 frames
Muxing mode : Container profile=Unknown@4.1
Codec ID : V_MPEG4/ISO/AVC
Duration : 1h 32mn
Bit rate : 5 481 Kbps
Nominal bit rate : 5 625 Kbps
Width : 1 280 pixels
Height : 720 pixels
Display aspect ratio : 16:9
Frame rate : 24.000 fps
Resolution : 24 bits
Colorimetry : 4:2:0
Scan type : Progressive
Bits/(Pixel*Frame) : 0.248
Stream size : 3.53 GiB (76%)
Writing library : x264 core 114 r1913 5fd3dce
Encoding settings : cabac=1 / ref=8 / deblock=1:-1:-1 / analyse=0x3:0x133 / me=umh / subme=7 / psy=1 / psy_rd=1.00:0.10 / mixed_ref=1 / me_range=16 / chroma_me=1 / trellis=2 / 8x8dct=1 / cqm=0 / deadzone=21,11 / fast_pskip=0 / chroma_qp_offset=-3 / threads=12 / sliced_threads=0 / nr=0 / decimate=1 / interlaced=0 / constrained_intra=0 / bframes=3 / b_pyramid=2 / b_adapt=2 / b_bias=0 / direct=3 / weightb=1 / open_gop=0 / weightp=2 / keyint=250 / keyint_min=23 / scenecut=40 / intra_refresh=0 / rc_lookahead=50 / rc=2pass / mbtree=1 / bitrate=5625 / ratetol=1.0 / qcomp=0.60 / qpmin=0 / qpmax=69 / qpstep=4 / cplxblur=20.0 / qblur=0.5 / ip_ratio=1.40 / aq=1:1.00
Audio #2
ID : 2
Format : AC-3
Format/Info : Audio Coding 3
Codec ID : A_AC3
Duration : 1h 32mn
Bit rate mode : Constant
Bit rate : 448 Kbps
Channel(s) : 6 channels
Channel positions : Front: L C R, Surround: L R, LFE
Sampling rate : 48.0 KHz
Stream size : 295 MiB (6%)
Title : Dub AC3 448 kbs 6 ch
Language : Russian
Audio #3
ID : 3
Format : DTS
Format/Info : Digital Theater Systems
Codec ID : A_DTS
Duration : 1h 32mn
Bit rate mode : Constant
Bit rate : 1 152 Kbps
Channel(s) : 6 channels
Channel positions : Front: L C R, Surround: L R, LFE
Sampling rate : 48.0 KHz
Resolution : 24 bits
Video delay : 11ms
Stream size : 760 MiB (16%)
Language : Russian
Свернуть
Скриншоты

Изображение
Изображение
Изображение
Изображение
Свернуть

_________________
Изображение

Изображение
Не в сети
Профиль  
 Добавлено: 2012-01-08 10:41 (спустя 9 месяцев)
Стаж: 5 лет 11 месяцев
Сообщений: 11
фильм отличный! только что за фигня - на протяжении всего фильма видно микрофон!? иногда он больше самих героев :) :-D
Не в сети
Профиль  
 Добавлено: 2012-02-01 16:02 (спустя 24 дня)
Аватара пользователя
Стаж: 7 лет 8 месяцев
Возраст: 22
Сообщений: 157
Спасибок: 132
скорости дайте пжл.
Не в сети
Профиль  
Начать новую темуОтветить на тему  [ Сообщений: 3 ] 
Вы не можете начинать темы
Вы не можете отвечать на сообщения
Вы не можете редактировать свои сообщения
Вы не можете удалять свои сообщения