Правила форума

  • В этом разделе создание новых тем Запрещено.
  • Для создания новых тем пользуйтесь Корневым разделом DVD и HD фильмы.
Начать новую темуОтветить на тему  [ Сообщений: 7 ] 
Торрент файл
Размер: 10.19 GB • Зарегистрирован: 5 лет 8 месяцев • Статус: Проверено
Скачан: 488 раз • Желающих скачать: 1 • Поблагодарили: 55 раз
 Раздают: 0  |  0 KB/s  ]   Качают: 0  |  0 KB/s  ] 
 Полного источника не было 6 часов 
Сообщения
 Добавлено: 2011-03-26 14:05
Модератор
Аватара пользователя
Стаж: 8 лет 7 месяцев
Сообщений: 4965
Спасибок: 110254
Лайков: 18
Изображение

Механик / The Mechanic


Год выпуска: 2010
Страна: США
Слоган: «Someone has to fix the problems.»

Жанр: боевик, триллер, криминал
Продолжительность: 01:32:12
Перевод: Профессиональный (полное дублирование)

Режиссёр: Саймон Уэст
В ролях: Джейсон Стэтхэм, Бен Фостер, Тони Голдуин, Дональд Сазерленд, Джефф Чейз, Мини Анден, Джеймс Логан, Эдди Дж. Фернандез, Джошуа Бриджуотер, Джон МакКоннелл
Бюджет: $40 000 000
Сборы в США: $29 026 292
Сборы в России: $8 208 998
Сборы в мире: $45 743 584

Мировая премьера: 21 января 2011
Релиз на DVD: 25 февраля 2011, «Монолит»
Релиз на Blu-ray: 22 марта 2011, «Монолит»
Описание: Артур Бишоп - «Механик», высокопрофессиональный безукоризненный киллер, который всегда работает по правилам - «чисто» и без следов. Такая работа требует полного самообладания и беспристрастности, и в своём деле ему нет равных. Бишоп всегда работал один, но ему пришлось стать наставником молодого и отчаянного Стива. Методичный профессионал и импульсивный ученик теперь на пару «устраняют проблемы», но рано или поздно они сойдутся в смертельной схватке...
Изображение 6.6/10 (11,179 votes) Изображение 6.678 (13 225)
MPAA: Изображение - Лицам до 17 лет обязательно присутствие взрослого
Релиз группы: Изображение
Изображение
Качество: BDRip 1080p
Формат: MKV

Видео: MPEG-4 AVC, 14.7 Мбит/с, 1920x1080
Аудио: Русский (DTS, 6 ch, 1152 Кбит/с)
"Знаете ли Вы, что..."
  • В кадрах, записанных камерами слежения на автозаправочной станции (в финале фильма), фигурирует дата 28-е января 2011-го года.
Свернуть
"NFO"
Общее
Format : Matroska
File size : 10,2 Гбайт
Duration : 1 ч. 32 м.
Overall bit rate : 15,8 Мбит/сек
Encoded date : UTC 2011-03-26 00:55:30
Writing application : mkvmerge v3.4.0 ('Rapunzel') сборка от May 15 2010 09:38:20
Writing library : libebml v0.8.0 + libmatroska v0.9.0

Видео
ID : 1
Format : AVC
Format/Info : Advanced Video Codec
Format profile : High@L4.1
Format settings, CABAC : Да
Format settings, ReFrames : 4 кадры
Codec ID : V_MPEG4/ISO/AVC
Duration : 1 ч. 32 м.
Bit rate : 14,7 Мбит/сек
Width : 1920 пикс.
Height : 1080 пикс.
Display aspect ratio : 16:9
Frame rate : 24,000 кадр/сек
Color space : YUV
Chroma subsampling : 4:2:0
Bit depth : 8 бит
Scan type : Прогрессивная
Bits/(Pixel*Frame) : 0.295
Stream size : 9,24 Гбайт (91%)
Writing library : x264 core 114 r1913 5fd3dce
Encoding settings : cabac=1 / ref=4 / deblock=1:-3:-3 / analyse=0x3:0x133 / me=umh / subme=10 / psy=1 / psy_rd=1.05:0.10 / mixed_ref=1 / me_range=64 / chroma_me=1 / trellis=2 / 8x8dct=1 / cqm=0 / deadzone=21,11 / fast_pskip=1 / chroma_qp_offset=-3 / threads=9 / sliced_threads=0 / nr=0 / decimate=1 / interlaced=0 / constrained_intra=0 / bframes=9 / b_pyramid=2 / b_adapt=2 / b_bias=0 / direct=3 / weightb=1 / open_gop=0 / weightp=2 / keyint=250 / keyint_min=24 / scenecut=40 / intra_refresh=0 / rc_lookahead=60 / rc=2pass / mbtree=1 / bitrate=14681 / ratetol=1.0 / qcomp=0.70 / qpmin=0 / qpmax=51 / qpstep=4 / cplxblur=20.0 / qblur=0.5 / vbv_maxrate=50000 / vbv_bufsize=62500 / nal_hrd=none / ip_ratio=1.40 / aq=1:0.80

Аудио
ID : 2
Format : DTS
Format/Info : Digital Theater Systems
Codec ID : A_DTS
Duration : 1 ч. 32 м.
Bit rate mode : Постоянный
Bit rate : 1152 Кбит/сек
Channel(s) : 6 канала(ов)
Channel positions : Front: L C R, Side: L R, LFE
Sampling rate : 48,0 КГц
Bit depth : 16 бит
Compression mode : С потерями
Stream size : 760 Мбайт (7%)
Language : Russian
Свернуть
"Скриншоты"

Изображение

Изображение

Изображение

Свернуть
_________________
Изображение Изображение Изображение
Билайн / АДС добавляйте ретрекер, чтобы качать на скорости 100 Мбит/с
Cкрытый текст
Изображение
Свернуть


Последний раз редактировалось NFSMW 2011-03-26 18:34, всего редактировалось 1 раз.
Не в сети
Профиль  
 Добавлено: 2011-03-26 16:17 (спустя 2 часа 11 минут)
Top-releaser
Аватара пользователя
Стаж: 6 лет 11 месяцев
Возраст: 23
Сообщений: 2084
Спасибок: 11188
Лайков: 13
NFSMW, давненько тебя не было видно.
P.S.
FlasRelease тоже режесеров с актерами перестал выдавать :( ?
Свернуть
_________________
Изображение
РАЗДАЧИ БОЛЬШЕ НЕ ПОДДЕРЖИВАЮ, простите.
Не в сети
Профиль  
 Добавлено: 2011-03-26 16:53 (спустя 36 минут)
Аватара пользователя
Стаж: 8 лет 10 месяцев
Сообщений: 703
Спасибок: 11142
Лайков: 2
Клёво, смотрел уже, теперь гляну в HD.!!! -)
Не в сети
Профиль  
 Добавлено: 2011-03-26 18:35 (спустя 1 час 42 минуты)
Модератор
Аватара пользователя
Стаж: 8 лет 7 месяцев
Сообщений: 4965
Спасибок: 110254
Лайков: 18

Junk666:

NFSMW, давненько тебя не было видно.
P.S.
FlasRelease тоже режесеров с актерами перестал выдавать :( ?
Свернуть
А что соскучились? ;;-)))
"P.S."
А я и не заметил, увидел нет режиссёра, добавил, а на актёров и внимания не обратил
Свернуть
_________________
Изображение Изображение Изображение
Билайн / АДС добавляйте ретрекер, чтобы качать на скорости 100 Мбит/с
Cкрытый текст
Изображение
Свернуть
Не в сети
Профиль  
 Добавлено: 2011-04-12 01:31 (спустя 16 дней)
Стаж: 9 лет
Сообщений: 11
Спасибок: 321
скриншоты надо было делать с моментами, когда в кадре микрофон, благо там таких мест навалом ;;-)))
Не в сети
Профиль  
 Добавлено: 2011-04-12 05:11 (спустя 3 часа)
Top-releaser
Аватара пользователя
Стаж: 6 лет 11 месяцев
Возраст: 23
Сообщений: 2084
Спасибок: 11188
Лайков: 13

Серрый:

скриншоты надо было делать с моментами, когда в кадре микрофон, благо там таких мест навалом ;;-)))
Это меня вообще убило! Я прямо охренел, когда не то что кусок микрофона, а целый со штативом в кадре!
_________________
Изображение
РАЗДАЧИ БОЛЬШЕ НЕ ПОДДЕРЖИВАЮ, простите.
Не в сети
Профиль  
 Добавлено: 2011-05-01 15:24 (спустя 19 дней)
Аватара пользователя
Стаж: 8 лет 1 месяц
Сообщений: 48
Спасибок: 5
мдааа... Косяпорный фильмец)))
Не в сети
Профиль  
Начать новую темуОтветить на тему  [ Сообщений: 7 ] 
Вы не можете начинать темы
Вы не можете отвечать на сообщения
Вы не можете редактировать свои сообщения
Вы не можете удалять свои сообщения
cron