Правила форума

  • В этом разделе создание новых тем Запрещено.
  • Для создания новых тем пользуйтесь Корневым разделом DVD и HD фильмы.
Начать новую темуОтветить на тему  [ Сообщений: 5 ] 
Торрент файл
Размер: 11.34 GB • Зарегистрирован: 5 лет • Статус: Проверено
Скачан: 176 раз • Желающих скачать: 0 • Поблагодарили: 36 раз
 Раздают: 0  |  0 KB/s  ]   Качают: 0  |  0 KB/s  ] 
 Полного источника не было 1 год 3 месяца 
Сообщения
 Добавлено: 2011-11-22 07:59
Top-releaser
Аватара пользователя
Стаж: 7 лет 3 месяца
Возраст: 25
Сообщений: 1036
Спасибок: 2694
Лайков: 9
Меланхолия / Melancholia

«Enjoy it while it lasts»

Изображение



Год выхода: 2011
Страна: Германия, Дания, Швеция, Франция

Жанр: фантастика, драма
Продолжительность: 02:09:53
Перевод: Профессиональное (многоголосое) [лицензия]

Режиссер: Ларс фон Триер
Сценарий: Ларс фон Триер
Продюсер: Луиз Вест, Мета Луиза Фольдагер, Беттина Брокемпер, ...
Оператор: Мануэль Альберто Кларо

В ролях: Кирстен Данст, Шарлотта Генсбур, Кифер Сазерленд, Шарлотта Рэмплинг, Джон Хёрт, Александр Скарсгард, Стеллан Скарсгард, Брэйди Корбет, Удо Кир, Джеймс Кэгнард

Описание: Свадебная вечеринка оборачивается катастрофой вселенского масштаба: обнаруживается, что на Землю надвигается планета под названием Меланхолия. С каждым часом она все ближе, и шансов на выживание у человечества все меньше…

KinoPoisk.ru: 7.486
IMDb.com: 7.8/10

Pаздача группы:Изображение

Бюджет $7 400 000
Сборы в США $371 682
Сборы в мире + $8 600 000 = $8 971 682
Сборы в России $1 264 305


Качество: BDRip 1080p
Формат: Mkv

Видео: MPEG4 Video (H264) 1920x816 25.00fps 10.5 Mbps
Аудио 1: Dolby AC3 48000Hz 6ch 448 Kbps
Аудио 2: Dts 48000Hz 6ch 1 510 Kbps
Subtitle: PGS

Изображение

MediaInfo
General
Unique ID : 213087794590062209471400584334365893201 (0xA04F376882856527848E8B9450132251)
Complete name : H:\Download\Melancholia.DVD_RG(1080p).mkv
Format : Matroska
Format version : Version 2
File size : 11.3 GiB
Duration : 2h 9mn
Overall bit rate : 12.5 Mbps
Movie name : Melancholia (2011) Release for Uniongang.tv
Encoded date : UTC 2011-11-21 09:02:36
Writing application : mkvmerge v5.0.1 ('Es ist Sommer') built on Oct 9 2011 11:55:43
Writing library : libebml v1.2.2 + libmatroska v1.3.0

Video
ID : 1
Format : AVC
Format/Info : Advanced Video Codec
Format profile : High@L4.1
Format settings, CABAC : Yes
Format settings, ReFrames : 5 frames
Codec ID : V_MPEG4/ISO/AVC
Duration : 2h 9mn
Bit rate : 10.5 Mbps
Width : 1 920 pixels
Height : 816 pixels
Display aspect ratio : 2.35:1
Frame rate : 25.000 fps
Color space : YUV
Chroma subsampling : 4:2:0
Bit depth : 8 bits
Scan type : Progressive
Bits/(Pixel*Frame) : 0.269
Stream size : 9.34 GiB (82%)
Title : Melancholia (2011) Release for Uniongang.tv
Writing library : x264 core 119 r2106 07efeb4
Encoding settings : cabac=1 / ref=5 / deblock=1:0:0 / analyse=0x3:0x133 / me=umh / subme=7 / psy=1 / psy_rd=1.00:0.00 / mixed_ref=1 / me_range=16 / chroma_me=1 / trellis=1 / 8x8dct=1 / cqm=0 / deadzone=21,11 / fast_pskip=0 / chroma_qp_offset=-2 / threads=12 / sliced_threads=0 / nr=0 / decimate=1 / interlaced=0 / bluray_compat=0 / constrained_intra=0 / bframes=3 / b_pyramid=2 / b_adapt=1 / b_bias=0 / direct=1 / weightb=1 / open_gop=0 / weightp=2 / keyint=250 / keyint_min=25 / scenecut=40 / intra_refresh=0 / rc_lookahead=40 / rc=2pass / mbtree=1 / bitrate=10532 / ratetol=1.0 / qcomp=0.60 / qpmin=0 / qpmax=69 / qpstep=4 / cplxblur=20.0 / qblur=0.5 / ip_ratio=1.40 / aq=1:1.00
Language : English

Audio #1
ID : 2
Format : AC-3
Format/Info : Audio Coding 3
Mode extension : CM (complete main)
Codec ID : A_AC3
Duration : 2h 9mn
Bit rate mode : Constant
Bit rate : 448 Kbps
Channel(s) : 6 channels
Channel positions : Front: L C R, Side: L R, LFE
Sampling rate : 48.0 KHz
Bit depth : 16 bits
Compression mode : Lossy
Stream size : 416 MiB (4%)
Title : Russian: AC3, 448 kb/s (6 ch)
Language : Russian

Audio #2
ID : 3
Format : DTS
Format/Info : Digital Theater Systems
Codec ID : A_DTS
Duration : 2h 9mn
Bit rate mode : Constant
Bit rate : 1 510 Kbps
Channel(s) : 6 channels
Channel positions : Front: L C R, Side: L R, LFE
Sampling rate : 48.0 KHz
Bit depth : 24 bits
Compression mode : Lossy
Stream size : 1.37 GiB (12%)
Title : English: DTS, 1510 kb/s (6 ch)
Language : English

Text
ID : 4
Format : PGS
Muxing mode : zlib
Codec ID : S_HDMV/PGS
Codec ID/Info : The same subtitle format used on BDs/HD-DVDs
Title : English
Language : English


Свернуть
Скриншоты
Изображение
Изображение
Изображение
Изображение
Изображение
Свернуть
Не в сети
Профиль  
 Добавлено: 2011-11-22 10:57 (спустя 2 часа 57 минут)
Аватара пользователя
Стаж: 7 лет 4 месяца
Сообщений: 245
Спасибок: 430
ну наконец-то лицензия
_________________
Детская, свадебная и семейная видеография в Нижнем Новгороде: justplay-nn.ru
Изображение
Не в сети
Профиль  
 Добавлено: 2013-03-16 21:47 (спустя 1 год 3 месяца)
Стаж: 8 лет 3 месяца
Сообщений: 41
Дайте скорости плзззз!

Добавлено спустя 4 минуты:
дайте 9 мб/с плиззз!
Не в сети
Профиль  
 Добавлено: 2013-11-04 17:17 (спустя 7 месяцев)
Стаж: 4 года 6 месяцев
Сообщений: 71
Спасибок: 2
скорости то дайте
Не в сети
Профиль  
 Добавлено: 2013-11-08 16:08 (спустя 3 дня)
Стаж: 4 года 6 месяцев
Сообщений: 71
Спасибок: 2
скорости говорю,или вы так для виду торренты выкладываете,а потом никто не раздаёт?
Не в сети
Профиль  
Начать новую темуОтветить на тему  [ Сообщений: 5 ] 
Вы не можете начинать темы
Вы не можете отвечать на сообщения
Вы не можете редактировать свои сообщения
Вы не можете удалять свои сообщения