Правила форума

  • В этом разделе создание новых тем Запрещено.
  • Для создания новых тем пользуйтесь Корневым разделом DVD и HD фильмы.
Начать новую темуОтветить на тему  [ Сообщений: 7 ] 
Торрент файл
Размер: 7.37 GB • Зарегистрирован: 5 лет • Статус: Проверено
Скачан: 193 раза • Желающих скачать: 0 • Поблагодарили: 40 раз
 Раздают: 0  |  0 KB/s  ]   Качают: 0  |  0 KB/s  ] 
 Полного источника не было 1 месяц 20 дней 
Сообщения
 Добавлено: 2011-11-25 04:41
Top-releaser
Аватара пользователя
Стаж: 8 лет 7 месяцев
Сообщений: 1286
Спасибок: 3420
Лайков: 7
Меланхолия / Melancholia


«Enjoy it while it lasts»

Изображение
Год выпуска: 2011
Страна: Германия, Дания, Швеция, Франция
Жанр: фантастика, драма
Продолжительность: 02:09:53
Перевод: Субтитры, Профессиональный (многоголосый, закадровый)

Режиссер: Ларс фон Триер
Сценарий: Ларс фон Триер
Продюсер: Луиз Вест, Мета Луиза Фольдагер, Беттина Брокемпер, Катрин Сальстрем, Марианна Слот
Оператор: Мануэль Альберто Кларо

В ролях: Кирстен Данст (Justine), Шарлотта Генсбур (Claire), Александр Скарсгард (Michael), Брэйди Корбет (Tim), Камерон Спурр (Leo), Шарлотта Рэмплинг (Gaby), Еспер Кристенсен (Little Father), Джон Хёрт (Dexter), Стеллан Скарсгард (Jack), Удо Кир (Wedding Planner), Кифер Сазерленд (John), Джеймс Кэгнард (Michaels Father)

Описание: Свадебная вечеринка оборачивается катастрофой вселенского масштаба: обнаруживается, что на Землю надвигается планета под названием Меланхолия. С каждым часом она все ближе, и шансов на выживание у человечества все меньше…

Релиз: Изображение Раздача: Изображение

Изображение
Изображение

Бюджет: $7 400 000
Сборы в США: $709 212
Сборы в России: $1 264 305
Сборы в мире: $9 309 212
Мировая премьера: 18 мая 2011
Релиз на DVD: 10 ноября 2011, «Новый Диск»

Знаете ли Вы, что...
  • Перед премьерой фильма в Каннах, на пресс-конференции, произошел очередной скандал с участием Ларса Фон Триера. Режиссер поддался на провокацию со стороны журналиста, намекнувшего о немецком происхождении маэстро, на что Фон Триер не сдержался и не совсем корректно отозвался о евреях и Гитлере, позже принеся официальные извинения.
  • Изначально роль Жюстин должна была исполнять Пенелопа Крус. Но она выбыла из процесса из-за участия в съемках фильма «Пираты Карибского Моря: На странных берегах».
Свернуть

Качество: BDRip
Формат: Matroska
Видео: AVC; 1280x544 (2.35:1); 5105 kbps; 25 fps; 0,293 bit/pixel
Аудио №1: Russian; DTS; 1509 kbps; CBR; 6 channels; 24 bit
Аудио №2: English; DTS; 1509 kbps; CBR; 6 channels; 24 bit

Субтитры №1: Russian
Субтитры №2: English

MediaInfo
Общее
Уникальный идентификатор : 191289856181556238992171645526462684799 (0x8FE91611B63041DC9CE40E79B857DE7F)
Полное имя : E:\Видео\Melancholia.2011.BluRay.720p.Rus.Eng.HDCLUB.mkv
Формат : Matroska
Версия формата : Version 2
Размер файла : 7,37 Гбайт
Продолжительность : 2 ч. 9 м.
Общий поток : 8126 Кбит/сек
Название фильма : Melancholia (2011) – Release for HDCLUB
Дата кодирования : UTC 2011-11-24 16:24:45
Программа кодирования : mkvmerge v5.0.1 ('Es ist Sommer') built on Oct 9 2011 11:55:43
Библиотека кодирования : libebml v1.2.2 + libmatroska v1.3.0

Видео
Идентификатор : 1
Формат : AVC
Формат/Информация : Advanced Video Codec
Профиль формата : High@L4.1
Параметр CABAC формата : Да
Параметр ReFrames формата : 12 кадров
Идентификатор кодека : V_MPEG4/ISO/AVC
Продолжительность : 2 ч. 9 м.
Битрейт : 5105 Кбит/сек
Ширина : 1280 пикселей
Высота : 544 пикселя
Соотношение сторон : 2,35:1
Частота кадров : 25,000 кадров/сек
Цветовое пространство : YUV
Субдискретизация насыщенности : 4:2:0
Битовая глубина : 8 бит
Тип развёртки : Прогрессивная
Бит/(Пиксели*Кадры) : 0.293
Размер потока : 4,49 Гбайт (61%)
Заголовок : Melancholia (2011) – Release for HDCLUB
Библиотека кодирования : x264 core 102 r1666 d058f37
Настройки программы : cabac=1 / ref=12 / deblock=1:-3:-3 / analyse=0x3:0x113 / me=umh / subme=10 / psy=1 / psy_rd=1.05:0.10 / mixed_ref=1 / me_range=32 / chroma_me=1 / trellis=2 / 8x8dct=1 / cqm=2 / deadzone=21,11 / fast_pskip=0 / chroma_qp_offset=-2 / threads=6 / sliced_threads=0 / nr=0 / decimate=1 / interlaced=0 / constrained_intra=0 / bframes=6 / b_pyramid=2 / b_adapt=2 / b_bias=0 / direct=3 / weightb=1 / open_gop=0 / weightp=2 / keyint=250 / keyint_min=25 / scenecut=40 / intra_refresh=0 / rc_lookahead=40 / rc=2pass / mbtree=1 / bitrate=5105 / ratetol=1.0 / qcomp=0.60 / qpmin=10 / qpmax=51 / qpstep=4 / cplxblur=20.0 / qblur=0.5 / vbv_maxrate=50000 / vbv_bufsize=50000 / ip_ratio=1.40 / aq=1:0.80 / nal_hrd=none
Язык : English
Default : Да
Forced : Нет

Аудио #1
Идентификатор : 2
Формат : DTS
Формат/Информация : Digital Theater Systems
Идентификатор кодека : A_DTS
Продолжительность : 2 ч. 9 м.
Вид битрейта : Постоянный
Битрейт : 1510 Кбит/сек
Каналы : 6 каналов
Расположение каналов : Front: L C R, Side: L R, LFE
Частота : 48,0 КГц
Битовая глубина : 24 бит
Метод сжатия : С потерями
Размер потока : 1,37 Гбайт (19%)
Заголовок : DTS 5.1 @ 1536kbps – MVO (R5)
Язык : Russian
Default : Да
Forced : Нет

Аудио #2
Идентификатор : 3
Формат : DTS
Формат/Информация : Digital Theater Systems
Идентификатор кодека : A_DTS
Продолжительность : 2 ч. 9 м.
Вид битрейта : Постоянный
Битрейт : 1510 Кбит/сек
Каналы : 6 каналов
Расположение каналов : Front: L C R, Side: L R, LFE
Частота : 48,0 КГц
Битовая глубина : 24 бит
Метод сжатия : С потерями
Размер потока : 1,37 Гбайт (19%)
Заголовок : DTS 5.1 @ 1536kbps
Язык : English
Default : Нет
Forced : Нет

Текст #1
Идентификатор : 4
Формат : UTF-8
Идентификатор кодека : S_TEXT/UTF8
Идентификатор кодека/Информация : UTF-8 Plain Text
Язык : Russian
Default : Нет
Forced : Нет

Текст #2
Идентификатор : 5
Формат : UTF-8
Идентификатор кодека : S_TEXT/UTF8
Идентификатор кодека/Информация : UTF-8 Plain Text
Язык : English
Default : Нет
Forced : Нет

Меню
00:00:00.000 : en:00:00:00.000
00:08:13.680 : en:00:08:13.680
00:24:09.800 : en:00:24:09.800
00:33:30.320 : en:00:33:30.320
00:45:03.440 : en:00:45:03.440
00:53:08.960 : en:00:53:08.960
01:03:26.240 : en:01:03:26.240
01:20:03.280 : en:01:20:03.280
01:33:44.560 : en:01:33:44.560
01:47:56.200 : en:01:47:56.200
01:57:28.840 : en:01:57:28.840
02:03:48.280 : en:02:03:48.280

Свернуть

Скриншоты

Изображение

Изображение

Изображение

Изображение

Изображение

Изображение

Изображение

Изображение

Изображение

Изображение

Свернуть
Не в сети
Профиль  
 Добавлено: 2011-12-04 14:27 (спустя 9 дней)
Top-releaser
Аватара пользователя
Стаж: 8 лет 7 месяцев
Сообщений: 1286
Спасибок: 3420
Лайков: 7
«Меланхолия» Ларса фон Триера названа лучшим европейским фильмом года
Не в сети
Профиль  
 Добавлено: 2012-01-15 08:35 (спустя 1 месяц 10 дней)
Аватара пользователя
Стаж: 8 лет 1 месяц
Возраст: 41
Сообщений: 395
Спасибок: 2
просмотрел больше половины фильиа, очень всё тоскливо, и скучно, сюжетная линия не "разворачиваеться", непонравилось..:pardon:
_________________
Сниму квартиру на Мещере, или в Гордеевке, жить будет Русская семейная пара. Тел. 8-929О53-9О77
Не в сети
Профиль  
 Добавлено: 2012-01-15 11:51 (спустя 3 часа)
Top-releaser
Аватара пользователя
Стаж: 8 лет 7 месяцев
Сообщений: 1286
Спасибок: 3420
Лайков: 7

Кот )):

просмотрел больше половины фильиа, очень всё тоскливо, и скучно, сюжетная линия не "разворачиваеться", непонравилось..:pardon:
[Арт-Хаус]
Фильм для "гурманов"
Я до конца дотерпел, мне понравилось. Конечно фильм весьма унылый, но снят красиво. И сюжетная линия хорошо просматривается.
Не в сети
Профиль  
 Добавлено: 2013-03-18 21:10 (спустя 1 год 2 месяца)
Стаж: 5 лет 7 месяцев
Сообщений: 7
говно которое свет не видывал!!!
Не в сети
Профиль  
 Добавлено: 2013-03-21 19:27 (спустя 2 дня 22 часа)
Top-releaser
Аватара пользователя
Стаж: 8 лет 7 месяцев
Сообщений: 1286
Спасибок: 3420
Лайков: 7

borzovka:

говно которое свет не видывал!!!
Хахаха, друган сходи мультики посмотри, это твоя тема :-D
Не в сети
Профиль  
 Добавлено: 2013-06-13 18:57 (спустя 2 месяца 22 дня)
Аватара пользователя
Стаж: 8 лет 9 месяцев
Сообщений: 1170
Спасибок: 1294
Лайков: 7
не могу смотреть на подобных главных героев, а уж героинь и подавно.
на протяжении всего фильма хотелось чтобы ей дали по шарам, а уж после сцены на корте... я умываю руки.
скучно, гадко.


Тема поднималась пользователем Shamman 2013-06-13 18:57.
Не в сети
Профиль  
Начать новую темуОтветить на тему  [ Сообщений: 7 ] 
Вы не можете начинать темы
Вы не можете отвечать на сообщения
Вы не можете редактировать свои сообщения
Вы не можете удалять свои сообщения