Правила форума

  • В этом разделе создание новых тем Запрещено.
  • Для создания новых тем пользуйтесь Корневым разделом DVD и HD фильмы.
Начать новую темуОтветить на тему  [ Сообщений: 7 ] 
Торрент файл
Размер: 7.47 GB • Зарегистрирован: 5 лет 10 месяцев • Статус: Проверено
Скачан: 145 раз • Желающих скачать: 0 • Поблагодарили: 21 раз
 Раздают: 0  |  0 KB/s  ]   Качают: 0  |  0 KB/s  ] 
 Полного источника не было 2 года 9 месяцев 
Сообщения
 Добавлено: 2011-02-06 21:37
Аватара пользователя
Стаж: 8 лет 3 месяца
Возраст: 43
Сообщений: 3290
Спасибок: 21012
Лайков: 3
Меня зовут Кхан / My Name Is Khan

Изображение


Год выпуска: 2010
Страна: Индия
Слоган: «Обычный человек, необычайное путешествие... во имя любви»

Жанр: драма, мелодрама
Продолжительность: 02:41:32
Перевод: Профессиональный (полное дублирование) + Любительский (одноголосый) - Zamez

Режиссер: Каран Джохар / Karan Johar
Сценарий: Шибани Батижа / Shibani Bathija, Нираджан Лингер / Niranjan Iyengar
Продюсер: Самит Чаула / Sumit Chawla, Хироо Джохар / Hiroo Johar, Гаури Кхан / Gauri Khan, Хаймар Правин / Khairnar Pravin, Прашант Шах / Prashant Shah
Оператор: Рави К. Чандран / Ravi K. Chandran
Композитор: Шанкар Махадеван / Shankar Mahadevan, Лой Мендонса / Loy Mendonsa, Эхсан Нурани / Ehsaan Noorani

В ролях: Шахрукх Кхан (Rizwan Khan), Шэйн Харпер (Tim), Каджол (Mandira Khan), Хармони Блоссом (Karma Girl), Стефани Хакабай (Kathy Baker), Кристофер Б. Дункан (President Barack Obama), Кэтлин М. Дарси (Museum Instructor), Мишель Марш (Mrs. Brenner), Дженнифер Экхолс (Mama Jenny), Адриан Кали Тернер (Joel), Дуглас Тейт (Sniper), Кэти А. Кин (Sarah Garrick)
Дублёры: Дмитрий Курта (Reese Garick)
Бюджет: $12 000 000
Сборы в США: $4 018 771
Сборы в России: $89 579
Сборы в мире: $41 088 442

Мировая премьера: 11 февраля 2010
Релиз на DVD: 20 января 2011, «Двадцатый Век Фокс СНГ»
Описание: Ризван Кхан, мусульманин из Индии, переезжает в Сан-Франциско и живет со своим братом и невесткой. Ризван, страдающий от Синдрома Аспергера, влюбляется в Мандиру. Несмотря на протесты его семьи, они женятся и начинают вместе небольшой бизнес. Они живут счастливо до 11 сентября 2001 года, когда отношение к мусульманам резко меняется. Когда происходит трагедия, Мандира оказывается раздавленной и их отношения дают трещину. Ризван растерян и очень расстроен тем, что любовь всей его жизни покинула его. Чтобы вернуть ее, он предпринимает трогательное и вдохновляющее путешествие через всю Америку.
Рейтинг
kinopoisk.ru: 8.204 (1 841)
imdb.com: 7.20 (9 155)
MPAA: PG-13 - Детям до 13 лет просмотр не желателен
Качество: BDRip
Формат: Matroska

Видео: AVC; 1280x544 (2.35:1); 4297 Kbps; 24 fps; 0,220 bpp
Аудио №1: Russian; AC3; 384 Kbps; CBR; 6 ch
Аудио №2: Russian: AC3; 448 Kbps; CBR; 6 ch Любительский (одноголосый) - Zamez (отдельным файлом)
Аудио №3: Hindi; DTS; 1509 Kbps; CBR; 6 ch; 24 bit
Субтитры: Russian [forced], Russian, English [forced], English
Раздача: Изображение
MediaInfo

Complete name : D:\Торенты\My.Name.Is.Khan\My.Name.Is.Khan.2010.D.BDRip.720p..mkv
Format : Matroska
File size : 6.99 GiB
Duration : 2h 41mn
Overall bit rate : 6 192 Kbps
Encoded date : UTC 2011-02-05 10:50:12
Writing application : mkvmerge v3.4.0 ('Rapunzel') сборка от May 15 2010 09:38:20
Writing library : libebml v0.8.0 + libmatroska v0.9.0

Video
ID : 1
Format : AVC
Format/Info : Advanced Video Codec
Format profile : High@L4.1
Format settings, CABAC : Yes
Format settings, ReFrames : 5 frames
Codec ID : V_MPEG4/ISO/AVC
Duration : 2h 41mn
Bit rate : 4 297 Kbps
Width : 1 280 pixels
Height : 544 pixels
Display aspect ratio : 2.35:1
Frame rate : 24.000 fps
Color space : YUV
Chroma subsampling : 4:2:0
Bit depth : 8 bits
Scan type : Progressive
Bits/(Pixel*Frame) : 0.257
Stream size : 4.71 GiB (67%)
Title : My.Name.Is.Khan.2010.D.BDRip.720p.mkv
Writing library : x264 core 104 r1688 0b36c6d
Encoding settings : cabac=1 / ref=5 / deblock=1:-2:-1 / analyse=0x3:0x113 / me=umh / subme=7 / psy=1 / psy_rd=1.00:0.00 / mixed_ref=1 / me_range=16 / chroma_me=1 / trellis=1 / 8x8dct=1 / cqm=0 / deadzone=21,11 / fast_pskip=1 / chroma_qp_offset=-2 / threads=6 / sliced_threads=0 / nr=0 / decimate=1 / interlaced=0 / constrained_intra=0 / bframes=3 / b_pyramid=0 / b_adapt=1 / b_bias=0 / direct=1 / weightb=1 / open_gop=0 / weightp=0 / keyint=250 / keyint_min=24 / scenecut=40 / intra_refresh=0 / rc_lookahead=30 / rc=2pass / mbtree=1 / bitrate=4297 / ratetol=1.0 / qcomp=0.60 / qpmin=10 / qpmax=51 / qpstep=4 / cplxblur=20.0 / qblur=0.5 / ip_ratio=1.40 / aq=1:1.00

Audio #1
ID : 2
Format : AC-3
Format/Info : Audio Coding 3
Mode extension : CM (complete main)
Codec ID : A_AC3
Duration : 2h 41mn
Bit rate mode : Constant
Bit rate : 384 Kbps
Channel(s) : 6 channels
Channel positions : Front: L C R, Side: L R, LFE
Sampling rate : 48.0 KHz
Bit depth : 16 bits
Compression mode : Lossy
Delay relative to video : 10s 649ms
Stream size : 444 MiB (6%)
Title : Дубляж R5
Language : Russian

Audio #2
ID : 3
Format : DTS
Format/Info : Digital Theater Systems
Codec ID : A_DTS
Duration : 2h 41mn
Bit rate mode : Constant
Bit rate : 1 510 Kbps
Channel(s) : 6 channels
Channel positions : Front: L C R, Side: L R, LFE
Sampling rate : 48.0 KHz
Bit depth : 24 bits
Compression mode : Lossy
Stream size : 1.70 GiB (24%)
Title : Hindi / English
Language : Hindi

Text #1
ID : 4
Format : UTF-8
Codec ID : S_TEXT/UTF8
Codec ID/Info : UTF-8 Plain Text
Title : Russian [forsed]
Language : Russian

Text #2
ID : 5
Format : UTF-8
Codec ID : S_TEXT/UTF8
Codec ID/Info : UTF-8 Plain Text
Title : Russian [full]
Language : Russian

Text #3
ID : 6
Format : UTF-8
Codec ID : S_TEXT/UTF8
Codec ID/Info : UTF-8 Plain Text
Title : English [forced]
Language : English

Text #4
ID : 7
Format : UTF-8
Codec ID : S_TEXT/UTF8
Codec ID/Info : UTF-8 Plain Text
Title : English [full]
Language : English
Свернуть
Скриншоты

Изображение
Изображение
Изображение
Свернуть

Изображение
_________________
Изображение
Не в сети
Профиль  
 Добавлено: 2011-02-09 08:00 (спустя 2 дня 10 часов)
Аватара пользователя
Стаж: 9 лет
Возраст: 27
Сообщений: 208
Спасибок: 18
:an)(gel: отличный фильм....
:'( :co_ol:
Не в сети
Профиль  
 Добавлено: 2011-02-10 22:28 (спустя 1 день 14 часов)
Аватара пользователя
Стаж: 7 лет 9 месяцев
Сообщений: 14
Фильм потрясающий!
Не в сети
Профиль  
 Добавлено: 2011-02-13 01:05 (спустя 2 дня 2 часа)
Аватара пользователя
Стаж: 6 лет 9 месяцев
Сообщений: 922
сценаристы немного перемудрили под конец, но в целом фильм заставляет вас радоваться и плакать вместе с героями.... такие сейчас делают редко...
Не в сети
Профиль  
 Добавлено: 2011-02-15 09:22 (спустя 2 дня 8 часов)
Top-seeder
Аватара пользователя
Стаж: 7 лет 11 месяцев
Сообщений: 170
Спасибок: 1379
Лайков: 1

~Black ocean~:

сценаристы немного перемудрили под конец,
Согласна, с деревней это чересчур !Фильм класс !!! Смотрите !!!
Шахрукх Кхан очень сильно сыграл !!! :co_ol: :co_ol: :co_ol:
Не в сети
Профиль  
 Добавлено: 2011-02-20 17:43 (спустя 5 дней)
Аватара пользователя
Стаж: 8 лет 10 месяцев
Сообщений: 79
Спасибок: 299
Отличная история!!!
Потрясающий фильм!!!
Не в сети
Профиль  
 Добавлено: 2011-02-21 15:37 (спустя 21 час)
Top-seeder
Аватара пользователя
Стаж: 8 лет 10 месяцев
Возраст: 30
Сообщений: 41
Спасибок: 22
Лайков: 3
понравилось. только перевод пропадал в нескольких местах - напрягало, но в целом, фильма не испортило.
Не в сети
Профиль  
Начать новую темуОтветить на тему  [ Сообщений: 7 ] 
Вы не можете начинать темы
Вы не можете отвечать на сообщения
Вы не можете редактировать свои сообщения
Вы не можете удалять свои сообщения