Правила форума

  • В этом разделе создание новых тем Запрещено.
  • Для создания новых тем пользуйтесь Корневым разделом DVD и HD фильмы.
Начать новую темуОтветить на тему  [ Сообщений: 4 ] 
Торрент файл
Размер: 6.43 GB • Зарегистрирован: 5 лет 5 месяцев • Статус: Проверено
Скачан: 135 раз • Желающих скачать: 0 • Поблагодарили: 22 раза
 Раздают: 0  |  0 KB/s  ]   Качают: 0  |  0 KB/s  ] 
 Полного источника не было 1 год 9 месяцев 
Сообщения
 Добавлено: 2011-07-06 22:04
Модератор
Аватара пользователя
Стаж: 8 лет 1 месяц
Возраст: 20
Сообщений: 32130
Спасибок: 98572
Лайков: 80
Изображение


Меняющие реальность / The Adjustment Bureau


Год выпуска: 2011
Страна: США
Слоган: «Ради нее он готов изменить мир»

Жанр: фантастика, триллер, мелодрама
Продолжительность: 01:45:36
Перевод: Дублированный [Лицензия]

В ролях: Мэтт Дэймон (David Norris), Эмили Блант (Elise Sellas), Энтони Маки (Harry Mitchell), Джон Слэттери (Richardson), Теренс Стэмп (Thompson), Майкл Келли (Charlie Traynor), Флоренс Кастринер (Suburban Mom), Филис Макбрид (Suburban Neighbor), Натали Картер (Suburban Neighbor), Чак Скарборо (играет самого себя), Джон Стюарт (играет самого себя), Capt. Gregory P. Hitchen (U.S. Coast Guard Officer)
Дублёры: Сергей Быстрицкий (David Norris) (David Norris), Наталья Фищук (Elise Sellas) (Elise Sellas), Дмитрий Курта (Harry Mitchell) (Harry Mitchell), Артем Карапетян (Thompson) (Thompson), Дмитрий Полонский (Charlie Traynor) (Charlie Traynor), Иван Агапов, Радик Мухаметзянов, Алексей Мясников, Даниил Щебланов, Владимир Герасимов, Диомид Виноградов (Police Officer Maes) (Police Officer Maes)
Бюджет: $51 000 000
Сборы в США: $62 495 645
Сборы в России: $4 053 567
Сборы в мире: $117 318 344

Мировая премьера: 26 февраля 2011
Релиз на DVD: 12 июля 2011, «Юниверсал Пикчерс Рус»
Релиз на Blu-ray: 12 июля 2011, «Юниверсал Пикчерс Рус»
Описание: Конгрессмен Дэвид Норрис стремительно поднимается по карьерной лестнице. Где-то по пути он встречает красавицу-балерину Элизу, но не может понять, почему никак не может познакомиться с девушкой поближе - постоянно возникают странные обстоятельства, благодаря которым герои всё время отделены друг от друга.
Изображение
MPAA: Изображение - Детям до 13 лет просмотр не желателен
Качество: BDRip 720p R5
Формат: MKV

Видео: 6747 kb/s, 1280x694, 23.976 fps
Аудио: Russian: AC3, 384 kb/s (6 ch) / English: DTS, 1510 kb/s (6 ch)
Субтитры: Russian, English
Изображение
Изображение
MediaInfo
H:\Menyaushie.realnost.2011.D.BDRip.720p.UNIONGANG.mkv
   General
      Complete name : H:\Menyaushie.realnost.2011.D.BDRip.720p.UNIONGANG.mkv
      Format : Matroska
      File size : 6.43 GiB
      Duration : 1h 45mn
      Overall bit rate : 8 701 Kbps
      Movie name : The.Adjustment.Bureau.2011.720p.BluRay.DTS.x264-HiDt-UNIONGANG
      Encoded date : UTC 2011-07-06 17:45:27
      Writing application : mkvmerge v3.4.0 ('Rapunzel') сборка от May 15 2010 09:38:20
      Writing library : libebml v0.8.0 + libmatroska v0.9.0
   Video #1
      ID : 1
      Format : AVC
      Format/Info : Advanced Video Codec
      Format profile : High@L4.1
      Format settings, CABAC : Yes
      Format settings, ReFrames : 9 frames
      Muxing mode : Container profile=Unknown@4.1
      Codec ID : V_MPEG4/ISO/AVC
      Duration : 1h 45mn
      Bit rate : 6 570 Kbps
      Nominal bit rate : 6 747 Kbps
      Width : 1 280 pixels
      Height : 694 pixels
      Display aspect ratio : 16:9
      Frame rate : 23.976 fps
      Resolution : 24 bits
      Colorimetry : 4:2:0
      Scan type : Progressive
      Bits/(Pixel*Frame) : 0.308
      Stream size : 4.85 GiB (75%)
      Title : The.Adjustment.Bureau.2011.720p.BluRay.DTS.x264-HiDt
      Writing library : x264 core 115 r1995 c1e60b9
      Encoding settings : cabac=1 / ref=9 / deblock=1:-3:-3 / analyse=0x3:0x113 / me=tesa / subme=10 / psy=1 / psy_rd=1.00:0.00 / mixed_ref=1 / me_range=32 / chroma_me=1 / trellis=2 / 8x8dct=1 / cqm=0 / deadzone=21,11 / fast_pskip=0 / chroma_qp_offset=-2 / threads=12 / sliced_threads=0 / nr=0 / decimate=1 / interlaced=0 / bluray_compat=0 / constrained_intra=0 / bframes=6 / b_pyramid=2 / b_adapt=2 / b_bias=0 / direct=3 / weightb=1 / open_gop=0 / weightp=2 / keyint=250 / keyint_min=23 / scenecut=40 / intra_refresh=0 / rc_lookahead=125 / rc=2pass / mbtree=1 / bitrate=6747 / ratetol=1.0 / qcomp=0.60 / qpmin=0 / qpmax=69 / qpstep=4 / cplxblur=20.0 / qblur=0.5 / ip_ratio=1.40 / aq=1:0.80
      Language : English
   Audio #2
      ID : 2
      Format : AC-3
      Format/Info : Audio Coding 3
      Codec ID : A_AC3
      Duration : 1h 45mn
      Bit rate mode : Constant
      Bit rate : 384 Kbps
      Channel(s) : 6 channels
      Channel positions : Front: L C R, Surround: L R, LFE
      Sampling rate : 48.0 KHz
      Stream size : 291 MiB (4%)
      Title : DD 5.1 384 kb/s
      Language : Russian
   Audio #3
      ID : 3
      Format : DTS
      Format/Info : Digital Theater Systems
      Codec ID : A_DTS
      Duration : 1h 45mn
      Bit rate mode : Constant
      Bit rate : 1 510 Kbps
      Channel(s) : 6 channels
      Channel positions : Front: L C R, Surround: L R, LFE
      Sampling rate : 48.0 KHz
      Resolution : 24 bits
      Video delay : 11ms
      Stream size : 1.12 GiB (17%)
      Title : DTS 5.1 1510 kb/s
      Language : English
   Audio #4
      ID : 4
      Format : Vorbis
      Format settings, Floor : 1
      Codec ID : A_VORBIS
      Duration : 1h 45mn
      Bit rate mode : Constant
      Bit rate : 64.0 Kbps
      Channel(s) : 2 channels
      Sampling rate : 48.0 KHz
      Stream size : 48.4 MiB (1%)
      Title : Commentary
      Writing library : libVorbis (Schaufenugget) (20101101 (Schaufenugget))
      Language : English
   Text #5
      ID : 5
      Format : UTF-8
      Codec ID : S_TEXT/UTF8
      Codec ID/Info : UTF-8 Plain Text
      Title : Full Voronin
      Language : Russian
   Text #6
      ID : 6
      Format : UTF-8
      Codec ID : S_TEXT/UTF8
      Codec ID/Info : UTF-8 Plain Text
      Title : Full
      Language : English
Свернуть
Скриншоты
Изображение

Изображение

Изображение

Изображение
Свернуть


Последний раз редактировалось Костян236 2011-07-07 09:14, всего редактировалось 4 раз(а).
Не в сети
Профиль  
 Добавлено: 2011-07-07 07:45 (спустя 9 часов)
Аватара пользователя
Стаж: 5 лет 5 месяцев
Сообщений: 36
1 DVD обложка для пользователей форума + 1 диск by Cristiano

ИзображениеИзображение
Свернуть

3D обложка для раздачи by Cristiano


Вариант №1.
"Предпросмотр"
Изображение
Свернуть
[img=right]http://i24.fastpic.ru/big/2011/0706/43/ba27b72e9325977a5f05e50005f0ad43.png[/img]

Свернуть
Не в сети
Профиль  
 Добавлено: 2011-07-07 07:49 (спустя 3 минуты)
Модератор
Аватара пользователя
Стаж: 8 лет 1 месяц
Возраст: 20
Сообщений: 32130
Спасибок: 98572
Лайков: 80
Cristiano, есть BD-обложка :)
Cкрытый текст
Изображение
Свернуть
Не в сети
Профиль  
 Добавлено: 2011-07-07 07:59 (спустя 9 минут)
Аватара пользователя
Стаж: 5 лет 5 месяцев
Сообщений: 36
Костян236 у мя 3D Изображение + Твоя обложка создана в фотошопе при помощи наложения исходника, в данном случае этот BluRay коробка, и добавления требуемой обложки, так можно хоть десятки постеров наколотить!
Не в сети
Профиль  
Начать новую темуОтветить на тему  [ Сообщений: 4 ] 
Вы не можете начинать темы
Вы не можете отвечать на сообщения
Вы не можете редактировать свои сообщения
Вы не можете удалять свои сообщения