Правила форума

  • В этом разделе создание новых тем Запрещено.
  • Для создания новых тем пользуйтесь Корневым разделом DVD и HD фильмы.
Начать новую темуОтветить на тему  [ Сообщений: 10 ] 
Торрент файл
Размер: 10.28 GB • Зарегистрирован: 5 лет 4 месяца • Статус: Проверено
Скачан: 344 раза • Желающих скачать: 0 • Поблагодарили: 74 раза
 Раздают: 0  |  0 KB/s  ]   Качают: 0  |  0 KB/s  ] 
 Полного источника не было 2 года 2 месяца 
Сообщения
 Добавлено: 2011-07-07 07:48
Модератор
Аватара пользователя
Стаж: 8 лет 1 месяц
Возраст: 20
Сообщений: 32130
Спасибок: 98568
Лайков: 80
Изображение


Меняющие реальность / The Adjustment Bureau


Год выпуска: 2011
Страна: Изображение США
Слоган: «Ради нее он готов изменить мир»

Жанр: фантастика, триллер, мелодрама
Продолжительность: 01:45:36
Перевод: Дублированный [Лицензия]

В ролях: Мэтт Дэймон (David Norris), Эмили Блант (Elise Sellas), Энтони Маки (Harry Mitchell), Джон Слэттери (Richardson), Теренс Стэмп (Thompson), Майкл Келли (Charlie Traynor), Флоренс Кастринер (Suburban Mom), Филис Макбрид (Suburban Neighbor), Натали Картер (Suburban Neighbor), Чак Скарборо (играет самого себя), Джон Стюарт (играет самого себя), Capt. Gregory P. Hitchen (U.S. Coast Guard Officer)
Дублёры: Сергей Быстрицкий (David Norris) (David Norris), Наталья Фищук (Elise Sellas) (Elise Sellas), Дмитрий Курта (Harry Mitchell) (Harry Mitchell), Артем Карапетян (Thompson) (Thompson), Дмитрий Полонский (Charlie Traynor) (Charlie Traynor), Иван Агапов, Радик Мухаметзянов, Алексей Мясников, Даниил Щебланов, Владимир Герасимов, Диомид Виноградов (Police Officer Maes) (Police Officer Maes)
Бюджет: $51 000 000
Сборы в США: $62 495 645
Сборы в России: $4 053 567
Сборы в мире: $117 318 344

Мировая премьера: 26 февраля 2011
Релиз на DVD: 12 июля 2011, «Юниверсал Пикчерс Рус»
Релиз на Blu-ray: 12 июля 2011, «Юниверсал Пикчерс Рус»
Описание: Конгрессмен Дэвид Норрис стремительно поднимается по карьерной лестнице. Где-то по пути он встречает красавицу-балерину Элизу, но не может понять, почему никак не может познакомиться с девушкой поближе - постоянно возникают странные обстоятельства, благодаря которым герои всё время отделены друг от друга.
Изображение
MPAA: Изображение - Детям до 13 лет просмотр не желателен
Качество: BDRip 1080p R5 [CHD]
Формат: MKV

Видео: 12.0 mb/s, 1920x1040, 23.976 fps
Аудио: Изображение Russian: AC3, 384 kb/s (6 ch) / Изображение English: DTS, 1510 kb/s (6 ch)
Субтитры: Изображение Russian, Изображение English
Изображение
Изображение
MediaInfo
General
Complete name                    : The.Adjustment.Bureau.2011.D.BDRip.1080p.[uniongang.tv].mkv
Format                           : Matroska
File size                        : 10.3 GiB
Duration                         : 1h 45mn
Overall bit rate                 : 13.9 Mbps
Movie name                       : [uniongang.tv]
Encoded date                     : UTC 2011-07-06 18:06:51
Writing application              : mkvmerge v3.4.0 ('Rapunzel') сборка от May 15 2010 09:38:20
Writing library                  : libebml v0.8.0 + libmatroska v0.9.0

Video
ID                               : 1
Format                           : AVC
Format/Info                      : Advanced Video Codec
Format profile                   : High@L4.1
Format settings, CABAC           : Yes
Format settings, ReFrames        : 4 frames
Codec ID                         : V_MPEG4/ISO/AVC
Duration                         : 1h 45mn
Bit rate                         : 12.0 Mbps
Width                            : 1 920 pixels
Height                           : 1 040 pixels
Display aspect ratio             : 16:9
Frame rate                       : 23.976 fps
Color space                      : YUV
Chroma subsampling               : 4:2:0
Bit depth                        : 8 bits
Scan type                        : Progressive
Bits/(Pixel*Frame)               : 0.251
Stream size                      : 8.68 GiB (84%)
Title                            : The.Adjustment.Bureau.2011.BluRay.1080p.DTS.x264-CHD
Writing library                  : x264 core 114 r1924 08d04a4
Encoding settings                : cabac=1 / ref=4 / deblock=1:-3:-3 / analyse=0x3:0x113 / me=umh / subme=10 / psy=1 / psy_rd=1.05:0.10 / mixed_ref=1 / me_range=48 / chroma_me=1 / trellis=2 / 8x8dct=1 / cqm=2 / deadzone=21,11 / fast_pskip=0 / chroma_qp_offset=-2 / threads=12 / sliced_threads=0 / nr=0 / decimate=1 / interlaced=0 / constrained_intra=0 / bframes=6 / b_pyramid=2 / b_adapt=2 / b_bias=0 / direct=3 / weightb=1 / open_gop=0 / weightp=2 / keyint=250 / keyint_min=23 / scenecut=40 / intra_refresh=0 / rc_lookahead=60 / rc=2pass / mbtree=1 / bitrate=12015 / ratetol=1.0 / qcomp=0.70 / qpmin=1 / qpmax=63 / qpstep=4 / cplxblur=20.0 / qblur=0.5 / vbv_maxrate=40000 / vbv_bufsize=40000 / nal_hrd=none / ip_ratio=1.40 / aq=2:0.80
Language                         : English

Audio #1
ID                               : 2
Format                           : AC-3
Format/Info                      : Audio Coding 3
Mode extension                   : CM (complete main)
Codec ID                         : A_AC3
Duration                         : 1h 45mn
Bit rate mode                    : Constant
Bit rate                         : 384 Kbps
Channel(s)                       : 6 channels
Channel positions                : Front: L C R, Side: L R, LFE
Sampling rate                    : 48.0 KHz
Bit depth                        : 16 bits
Compression mode                 : Lossy
Stream size                      : 291 MiB (3%)
Title                            : DUB R5
Language                         : Russian

Audio #2
ID                               : 3
Format                           : DTS
Format/Info                      : Digital Theater Systems
Codec ID                         : A_DTS
Duration                         : 1h 45mn
Bit rate mode                    : Constant
Bit rate                         : 1 510 Kbps
Channel(s)                       : 6 channels
Channel positions                : Front: L C R, Side: L R, LFE
Sampling rate                    : 48.0 KHz
Bit depth                        : 24 bits
Compression mode                 : Lossy
Stream size                      : 1.12 GiB (11%)
Title                            : Original
Language                         : English

Text #1
ID                               : 4
Format                           : UTF-8
Codec ID                         : S_TEXT/UTF8
Codec ID/Info                    : UTF-8 Plain Text
Title                            : Russian
Language                         : Russian

Text #2
ID                               : 5
Format                           : UTF-8
Codec ID                         : S_TEXT/UTF8
Codec ID/Info                    : UTF-8 Plain Text
Title                            : English
Language                         : English
Свернуть
Скриншоты
Изображение

Изображение

Изображение

Изображение
Свернуть
Не в сети
Профиль  
 Добавлено: 2011-07-07 15:03 (спустя 7 часов)
Top-releaser
Аватара пользователя
Стаж: 6 лет 7 месяцев
Сообщений: 2078
Спасибок: 3230
Лайков: 9
хорошее кино :)
Не в сети
Профиль  
 Добавлено: 2011-07-07 20:15 (спустя 5 часов)
Аватара пользователя
Стаж: 9 лет
Сообщений: 545
Спасибок: 339
скачал 30% запустил и удивился "Короли улиц" а не "Меняющие реальность" странно.......... кто то может что то объяснить, пробую перезапустить закачку и вновь проверю
_________________
Smack - Вместе нам не быть (Mixtape vol. 3) [2013]
Smack - Нарисую (Mixtape vol. 2) [2011]
Не в сети
Профиль  
 Добавлено: 2011-07-07 20:17 (спустя 1 минута)
Модератор
Аватара пользователя
Стаж: 8 лет 1 месяц
Возраст: 20
Сообщений: 32130
Спасибок: 98568
Лайков: 80
Smack_07-PM
:ps_ih:
Не в сети
Профиль  
 Добавлено: 2011-07-07 20:25 (спустя 7 минут)
Аватара пользователя
Стаж: 9 лет
Сообщений: 545
Спасибок: 339
Костян236
А по подробней :sh_ok:
_________________
Smack - Вместе нам не быть (Mixtape vol. 3) [2013]
Smack - Нарисую (Mixtape vol. 2) [2011]
Не в сети
Профиль  
 Добавлено: 2011-07-07 21:14 (спустя 49 минут)
Аватара пользователя
Стаж: 7 лет 5 месяцев
Сообщений: 541
Спасибок: 2661
Лайков: 2
Smack_07-PM
учи как устроен жесткий диск
Не в сети
Профиль  
 Добавлено: 2011-07-16 16:17 (спустя 8 дней)
Аватара пользователя
Стаж: 9 лет 1 месяц
Сообщений: 2152
Спасибок: 778
Лайков: 14
Хардсабы О_О
_________________
PSN
Изображение
Свернуть
Изображение
Не в сети
Профиль  
 Добавлено: 2012-12-24 10:46 (спустя 1 год 5 месяцев)
Аватара пользователя
Стаж: 4 года 4 месяца
Возраст: 33
Сообщений: 178
Лайков: 3
:co_ol: :co_ol:
Не в сети
Профиль  
 Добавлено: 2014-10-17 21:31 (спустя 1 год 9 месяцев)
Пользователь забанен
Аватара пользователя
Стаж: 7 лет 8 месяцев
Возраст: 24
Сообщений: 72
Раздайте пожалста)
Не в сети
Профиль  
 Добавлено: 2014-11-03 18:59 (спустя 16 дней)
Стаж: 5 лет 7 месяцев
Сообщений: 8
дайте скорости плиз :(
Не в сети
Профиль  
Начать новую темуОтветить на тему  [ Сообщений: 10 ] 
Вы не можете начинать темы
Вы не можете отвечать на сообщения
Вы не можете редактировать свои сообщения
Вы не можете удалять свои сообщения