Правила форума

  • В этом разделе создание новых тем Запрещено.
  • Для создания новых тем пользуйтесь Корневым разделом DVD и HD фильмы.
Начать новую темуОтветить на тему  [ Сообщений: 2 ] 
Торрент файл
Размер: 3.01 GB • Зарегистрирован: 2 года 9 месяцев • Статус: T Временный релиз
Скачан: 8 раз • Желающих скачать: 0 • Поблагодарили: 7 раз
 Раздают: 0  |  0 KB/s  ]   Качают: 0  |  0 KB/s  ] 
 Полного источника не было 2 часа 34 минуты 
Сообщения
 Добавлено: 2014-02-22 19:11
Модератор
Аватара пользователя
Стаж: 8 лет 2 месяца
Возраст: 30
Сообщений: 3201
Спасибок: 2960
Лайков: 206
Мэри и Марта / Mary and Martha

«Two mothers connected by loss. Inspired by hope»

Изображение


Год выхода: 2013
Страна: Великобритания, США
Жанр: драма
Продолжительность: 01:34:55
Перевод: Профессиональный (двухголосый) [студия NLS]
Режиссер: Филлип Нойс
В ролях: Хилари Суэнк, Бренда Блетин, Сэм Клафлин, Фрэнк Грилло, Люкс Хэйни-Джардин, Бонго Мбутума, Йен Редфорд, Джеймс Вудс
О фильме:
Сюжет фильма раскрывает судьбы двух совершенно разных женщин, Мэри и Марты, которых роднит лишь одно – обе они потеряли своих сыновей. Мэри – чересчур опекающая американская мама, чьи старания защитить ребенка не привели ни к чему хорошему. Решив помочь Джорджу, своему единственному сыну, справиться с проблемами и отвлечься от неприятностей в общении со сверстниками, Мэри забрала его из школы и отправилась с ним в долгое путешествие по Африке.
Там Джордж заразился малярией и умер. После похорон Мэри встретила Марту – британку, которая тоже потеряла в своего единственного ребенка, заболевшего малярией в Мозамбике. Живя в благополучных западных странах, ни Мэри, ни Марта до сей поры не представляли себе, насколько опасна может быть эта болезнь. Вместе две матери решают обратить свою скорбь во благо и сделать все возможное для лечения малярии, которая, если верить статистике, ежегодно уносит жизни 660 тысяч человек, в основном, африканских детей.

Дата мировой премьеры: 1 марта 2013
Качество: WEB-DL 720p
Формат: MKV
Видео: 3879 kb/s, 1280х718
Аудио: Russian: AC3, 192 kb/s (2 ch) / English: AC3, 384 kb/s (6 ch)
Субтитры: Russian [alex-kam], English
Дополнительно: Сохранены оригинальные чаптеры как на Blu-Ray

ИзображениеИзображениеИзображение
MediaInfo
Формат : Matroska
Версия формата : Version 4 / Version 2
Размер файла : 3,01 Гбайт
Продолжительность : 1 ч. 34 м.
Общий поток : 4546 Кбит/сек
Название фильма : Release Group CINEMANIA
Дата кодирования : UTC 2014-02-22 12:12:14
Программа кодирования : mkvmerge v6.7.0 ('Back to the Ground') 64bit built on Jan 8 2014 15:10:52
Библиотека кодирования : libebml v1.3.0 + libmatroska v1.4.1

Видео
Идентификатор : 1
Формат : AVC
Формат/Информация : Advanced Video Codec
Профиль формата : High@L3.1
Параметр CABAC формата : Нет
Параметр ReFrames формата : 2 кадра
Идентификатор кодека : V_MPEG4/ISO/AVC
Продолжительность : 1 ч. 34 м.
Битрейт : 3879 Кбит/сек
Ширина : 1280 пикселей
Высота : 718 пикселей
Соотношение сторон : 16:9
Режим частоты кадров : Постоянный
Частота кадров : 23,976 кадра/сек
Цветовое пространство : YUV
Субдискретизация насыщенности : 4:2:0
Битовая глубина : 8 бит
Тип развёртки : Прогрессивная
Бит/(Пиксели*Кадры) : 0.176
Размер потока : 2,57 Гбайт (85%)
Язык : English
Default : Да
Forced : Да
Основные цвета : BT.709
Характеристики трансфера : BT.709
Коэффициенты матрицы : BT.709

Аудио #1
Идентификатор : 2
Формат : AC-3
Формат/Информация : Audio Coding 3
Расширение режима : CM (complete main)
Параметр Endianness формата : Big
Идентификатор кодека : A_AC3
Продолжительность : 1 ч. 34 м.
Вид битрейта : Постоянный
Битрейт : 192 Кбит/сек
Каналы : 2 канала
Расположение каналов : Front: L R
Частота : 48,0 КГц
Битовая глубина : 16 бит
Метод сжатия : С потерями
Размер потока : 130 Мбайт (4%)
Заголовок : NLS
Язык : Russian
Default : Да
Forced : Да

Аудио #2
Идентификатор : 3
Формат : AC-3
Формат/Информация : Audio Coding 3
Расширение режима : CM (complete main)
Параметр Endianness формата : Big
Идентификатор кодека : A_AC3
Продолжительность : 1 ч. 34 м.
Вид битрейта : Постоянный
Битрейт : 384 Кбит/сек
Каналы : 6 каналов
Расположение каналов : Front: L C R, Side: L R, LFE
Частота : 48,0 КГц
Битовая глубина : 16 бит
Метод сжатия : С потерями
Размер потока : 261 Мбайт (8%)
Язык : English
Default : Нет
Forced : Нет

Текст #1
Идентификатор : 4
Формат : UTF-8
Идентификатор кодека : S_TEXT/UTF8
Идентификатор кодека/Информация : UTF-8 Plain Text
Заголовок : alex-kam
Язык : Russian
Default : Нет
Forced : Нет

Текст #2
Идентификатор : 5
Формат : UTF-8
Идентификатор кодека : S_TEXT/UTF8
Идентификатор кодека/Информация : UTF-8 Plain Text
Язык : English
Default : Нет
Forced : Нет

Меню
00:00:00.000 : en:A Big Idea
00:12:13.000 : en:Curriculum
00:20:01.000 : en:Field Trip
00:33:17.000 : en:Homecoming
00:41:23.000 : en:Something in Common
00:54:10.000 : en:To Be Useful
01:07:54.000 : en:All Your Children
01:32:19.000 : en:Credits
Свернуть
Скриншоты
Изображение
Изображение
Изображение
Изображение
Изображение
Свернуть

Изображение
Изображение
_________________

ИзображениеПравила Создание релизов от А до Я
 vitso нравится это.
Не в сети
Профиль  
 Добавлено: 2014-03-05 17:27 (спустя 10 дней)
Модератор
Аватара пользователя
Стаж: 8 лет 2 месяца
Возраст: 30
Сообщений: 3201
Спасибок: 2960
Лайков: 206
Фильм добрый, размеренный, рекомендую для семейного просмотра.
_________________

ИзображениеПравила Создание релизов от А до Я
Не в сети
Профиль  
Начать новую темуОтветить на тему  [ Сообщений: 2 ] 
Вы не можете начинать темы
Вы не можете отвечать на сообщения
Вы не можете редактировать свои сообщения
Вы не можете удалять свои сообщения