Правила форума

  • В этом разделе создание новых тем Запрещено.
  • Для создания новых тем пользуйтесь Корневым разделом DVD и HD фильмы.
Начать новую темуОтветить на тему  [ Сообщений: 10 ] 
Торрент файл
Размер: 12.11 GB • Зарегистрирован: 3 года 2 месяца • Статус: Проверено
Скачан: 94 раза • Желающих скачать: 0 • Поблагодарили: 39 раз
 Раздают: 0  |  0 KB/s  ]   Качают: 0  |  0 KB/s  ] 
 Полного источника не было 1 год 3 месяца 
Сообщения
 Добавлено: 2013-09-30 01:54
Аватара пользователя
Стаж: 9 лет 1 месяц
Сообщений: 7981
Спасибок: 122210
Лайков: 1191
Мертвец в Тумбстоуне / Dead in Tombstone

Изображение


Год выпуска: 2013
Страна: Изображение США
Жанр: фэнтези, вестерн
Продолжительность: 01:39:53
Субтитры: Aнглийские
Перевод: Профессиональный (полное дублирование) [Лицензия]


Режиссер: Роэль Рейн
Сценарий: Брендан Коулз, Шэйн Кун
Продюсер: Майк Эллиот, Альберт Т. Дикерсон III, Грег Холстейн
Оператор: Роэль Рейн
Композитор: Хибрид

В ролях: Дэнни Трехо, Энтони Майкл Холл, Дина Мейер, Микки Рурк, Ричард Диллэйн, Эдвард Экрут, Каталина Грама, Ронан Саммерс, Дан Бадарау, Раду Андрей Мику

Описание: Сюжет вращается вокруг мексиканского бандита по имени Герреро Эрнандес, которого предательски убил родной брат, свежевызволенный из тюрьмы. Заключивший сделку с Дьяволом с Эль Диабло, Эрнандес возвращается в мир живых, чтобы во всём разобраться и отомстить.

Изображение Изображение

Раздача группы: Изображение

Качество: BDRip (1080p)
Формат: Matroska
Видео: MPEG-4 AVC, 14.5 Мбит/с, 1920x1080, 23.976 кадр/с
Аудио №1: Русский (DTS, 48,0 КГц, 6 ch, 768 Кбит/c)
Аудио №2: Английский (DTS, 48,0 КГц, 6 ch, 1510 Кбит/c)

MediaInfo
Общее
Уникальный идентификатор : 236762984664695244263089756410467549756 (0xB21EE4667C99B5B895414627D177823C)
Полное имя : C:\Фильмы\Dead.in.Tombstone.2013.1080p.BluRay.DTS.x264.R.G.Daredevil.mkv
Формат : Matroska
Версия формата : Version 2
Размер файла : 12,1 Гбайт
Продолжительность : 1 ч. 39 м.
Общий поток : 17,4 Мбит/сек
Дата кодирования : UTC 2013-09-29 15:33:53
Программа кодирования : mkvmerge v6.3.0 ('You can't stop me!') built on Jun 28 2013 20:09:41
Библиотека кодирования : libebml v1.3.0 + libmatroska v1.4.0

Видео
Идентификатор : 1
Формат : AVC
Формат/Информация : Advanced Video Codec
Профиль формата : High@L4.1
Параметр CABAC формата : Да
Параметр ReFrames формата : 4 кадра
Идентификатор кодека : V_MPEG4/ISO/AVC
Продолжительность : 1 ч. 39 м.
Битрейт : 14,5 Мбит/сек
Ширина : 1920 пикселей
Высота : 1080 пикселей
Соотношение сторон : 16:9
Режим частоты кадров : Постоянный
Частота кадров : 23,976 кадра/сек
Цветовое пространство : YUV
Субдискретизация насыщенности : 4:2:0
Битовая глубина : 8 бит
Тип развёртки : Прогрессивная
Бит/(Пиксели*Кадры) : 0.292
Размер потока : 10,1 Гбайт (84%)
Заголовок : Dead.in.Tombstone.2013.1080p.BluRay.x264-WESTSiDE
Библиотека кодирования : x264 core 138 r2358 9e941d1
Настройки программы : cabac=1 / ref=4 / deblock=1:-3:-3 / analyse=0x3:0x133 / me=umh / subme=10 / psy=1 / psy_rd=1.05:0.00 / mixed_ref=1 / me_range=32 / chroma_me=1 / trellis=2 / 8x8dct=1 / cqm=0 / deadzone=21,11 / fast_pskip=1 / chroma_qp_offset=-2 / threads=12 / lookahead_threads=2 / sliced_threads=0 / nr=0 / decimate=1 / interlaced=0 / bluray_compat=0 / constrained_intra=0 / bframes=8 / b_pyramid=2 / b_adapt=2 / b_bias=0 / direct=3 / weightb=1 / open_gop=0 / weightp=2 / keyint=240 / keyint_min=23 / scenecut=40 / intra_refresh=0 / rc_lookahead=60 / rc=crf / mbtree=0 / crf=17.7 / qcomp=0.60 / qpmin=0 / qpmax=69 / qpstep=4 / vbv_maxrate=50000 / vbv_bufsize=50000 / crf_max=0.0 / nal_hrd=none / ip_ratio=1.40 / pb_ratio=1.30 / aq=1:0.90
Язык : English
Default : Да
Forced : Нет

Аудио #1
Идентификатор : 2
Формат : DTS
Формат/Информация : Digital Theater Systems
Режим : 16
Параметр Endianness формата : Big
Идентификатор кодека : A_DTS
Продолжительность : 1 ч. 39 м.
Вид битрейта : Постоянный
Битрейт : 768 Кбит/сек
Каналы : 6 каналов
Расположение каналов : Front: L C R, Side: L R, LFE
Частота : 48,0 КГц
Битовая глубина : 24 бит
Метод сжатия : С потерями
Размер потока : 549 Мбайт (4%)
Язык : Russian
Default : Да
Forced : Нет

Аудио #2
Идентификатор : 3
Формат : DTS
Формат/Информация : Digital Theater Systems
Режим : 16
Параметр Endianness формата : Big
Идентификатор кодека : A_DTS
Продолжительность : 1 ч. 39 м.
Вид битрейта : Постоянный
Битрейт : 1509 Кбит/сек
Каналы : 6 каналов
Расположение каналов : Front: L C R, Side: L R, LFE
Частота : 48,0 КГц
Битовая глубина : 24 бит
Метод сжатия : С потерями
Размер потока : 1,05 Гбайт (9%)
Заголовок : English DTS / 1510 Kbps
Язык : English
Default : Нет
Forced : Нет

Аудио #3
Идентификатор : 4
Формат : AC-3
Формат/Информация : Audio Coding 3
Профиль формата : Dolby Digital
Расширение режима : CM (complete main)
Параметр Endianness формата : Big
Идентификатор кодека : A_AC3
Продолжительность : 1 ч. 39 м.
Вид битрейта : Постоянный
Битрейт : 192 Кбит/сек
Каналы : 2 канала
Расположение каналов : Front: L R
Частота : 48,0 КГц
Битовая глубина : 16 бит
Метод сжатия : С потерями
Размер потока : 137 Мбайт (1%)
Заголовок : commentary
Язык : English
Default : Нет
Forced : Нет

Текст #1
Идентификатор : 5
Формат : UTF-8
Идентификатор кодека : S_TEXT/UTF8
Идентификатор кодека/Информация : UTF-8 Plain Text
Заголовок : commentary
Язык : English
Default : Нет
Forced : Нет

Текст #2
Идентификатор : 6
Формат : UTF-8
Идентификатор кодека : S_TEXT/UTF8
Идентификатор кодека/Информация : UTF-8 Plain Text
Заголовок : SDH
Язык : English
Default : Нет
Forced : Нет
Свернуть
Скриншоты
Изображение
Изображение
Изображение
Изображение
Свернуть
Не в сети
Профиль  
 Добавлено: 2013-09-30 16:13 (спустя 14 часов)
Кинокомментатор
Аватара пользователя
Стаж: 9 лет 1 месяц
Сообщений: 1332
Лайков: 54
не решаюсь я что то пока))
Не в сети
Профиль  
 Добавлено: 2013-10-02 19:02 (спустя 2 дня 2 часа)
Аватара пользователя
Стаж: 8 лет 2 месяца
Сообщений: 40
Лайков: 2
чё? как фильм?
Не в сети
Профиль  
 Добавлено: 2013-10-03 16:18 (спустя 21 час)
Аватара пользователя
Стаж: 8 лет 10 месяцев
Возраст: 31
Сообщений: 70
Спасибок: 74
не смотрел, но осуждаю
Не в сети
Профиль  
 Добавлено: 2013-10-04 16:20 (спустя 1 день)
Стаж: 8 лет 1 месяц
Сообщений: 215
Лайков: 24
А я скачаю. Пусть будет!
Не в сети
Профиль  
 Добавлено: 2013-10-04 20:35 (спустя 4 часа)
Стаж: 3 года 7 месяцев
Сообщений: 4
Я этого актёра не люблю да и качать чего то не хочется!!!Простите в раздаче не помогу)
Не в сети
Профиль  
 Добавлено: 2013-10-06 15:00 (спустя 1 день 18 часов)
Аватара пользователя
Стаж: 4 года 11 месяцев
Сообщений: 67
фильм на один раз-сюжета нет совсем!!! рурк порадовал
Не в сети
Профиль  
 Добавлено: 2013-10-07 22:35 (спустя 1 день 7 часов)
Стаж: 8 лет 1 месяц
Сообщений: 215
Лайков: 24
Ниче так фильм. Под пиво нормально идет. Мики Рурк вообще мутировал. И, да, весь фильм какието субтитры идут не к месту, я так ине понял, что это.
Не в сети
Профиль  
 Добавлено: 2013-10-09 21:40 (спустя 1 день 23 часа)
Аватара пользователя
Стаж: 8 лет 11 месяцев
Сообщений: 817
Спасибок: 27
Лайков: 9
После 45 минут просмотра выключил это говнолепство
Не в сети
Профиль  
 Добавлено: 2013-11-01 17:52 (спустя 22 дня)
Аватара пользователя
Стаж: 5 лет 8 месяцев
Возраст: 25
Сообщений: 57
Спасибок: 14
Лайков: 2
Денни Трехо стали форсить уж слишком часто! Актёр не плохой, но человеку уже 70, где были все режиссёры раньше? Кинцо на разок, но спасибо за релиз.)
Не в сети
Профиль  
Начать новую темуОтветить на тему  [ Сообщений: 10 ] 
Вы не можете начинать темы
Вы не можете отвечать на сообщения
Вы не можете редактировать свои сообщения
Вы не можете удалять свои сообщения