Правила форума

  • В этом разделе создание новых тем Запрещено.
  • Для создания новых тем пользуйтесь Корневым разделом DVD и HD фильмы.
Начать новую темуОтветить на тему  [ Сообщений: 4 ] 
Торрент файл
Размер: 8.2 GB • Зарегистрирован: 3 года 2 месяца • Статус: Проверено
Скачан: 106 раз • Желающих скачать: 0 • Поблагодарили: 55 раз
 Раздают: 0  |  0 KB/s  ]   Качают: 0  |  0 KB/s  ] 
 Полного источника не было 4 месяца 13 дней 
Сообщения
 Добавлено: 2013-10-04 01:55
Аватара пользователя
Стаж: 9 лет 1 месяц
Сообщений: 7989
Спасибок: 122240
Лайков: 1193
Мерзлая земля / The Frozen Ground

«Охотник становится жертвой»

Изображение


Год выпуска: 2013
Страна: Изображение США
Жанр: триллер, криминал, биография
Продолжительность: 01:45:34
Перевод: Профессиональный (полное дублирование) [Лицензия]


Режиссер: Скотт Уокер
Сценарий: Скотт Уокер
Продюсер: Фифти Сент, Ремингтон Чейз, Рэндолл Эмметт
Оператор: Патрик Мургуйя
Композитор: Лорни Бэлфи

В ролях: Николас Кейдж, Джон Кьюсак, Фифти Сент, Ванесса Энн Хадженс, Рада Митчелл, Дин Норрис, Кэтрин ЛаНаса, Джоди Лин О’Кифи, Мэтт Джералд, Джина Мантенья

Описание: Все были уверены, что Роберт Хансен — приличный семьянин, владелец пекарни и славный охотник. Никто не подозревал, что на самом деле он — безжалостный маньяк, который похитил и убил более двадцати женщин. И только 17-летней Синди Полсон удалось сбежать от убийцы. Она наводит на след маньяка полицейского, который начинает опасное расследование. Ему никто не верит: Хансен — слишком приличный человек для такого обвинения… Но упорный коп знает свое дело и должен дойти до конца…

Изображение Изображение

Раздача группы: Изображение

Качество: BDRip (1080p)
Формат: Matroska
Видео: MPEG-4 AVC, 9230 Кбит/с, 1920x800
Аудио №1: Русский (AC3, 48,0 КГц, 6 ch, 384 Кбит/c)
Аудио №2: Английский (AC3, 48,0 КГц, 6 ch, 640 Кбит/c)

MediaInfo
Общее
Уникальный идентификатор : 195952154474990130312327084991569724779 (0x936B031F58ABD6CCB498B884DB00056B)
Полное имя : C:\Фильмы\The.Frozen.Ground.2013.BluRay.1080p.DTS.x264.R.G.Daredevil.mkv
Формат : Matroska
Версия формата : Version 2
Размер файла : 8,20 Гбайт
Продолжительность : 1 ч. 45 м.
Общий поток : 11,1 Мбит/сек
Дата кодирования : UTC 2013-10-03 20:15:21
Программа кодирования : mkvmerge v6.3.0 ('You can't stop me!') built on Jun 28 2013 20:09:41
Библиотека кодирования : libebml v1.3.0 + libmatroska v1.4.0

Видео
Идентификатор : 1
Формат : AVC
Формат/Информация : Advanced Video Codec
Профиль формата : High@L4.1
Параметр CABAC формата : Да
Параметр ReFrames формата : 5 кадров
Идентификатор кодека : V_MPEG4/ISO/AVC
Продолжительность : 1 ч. 45 м.
Битрейт : 9230 Кбит/сек
Ширина : 1920 пикселей
Высота : 800 пикселей
Соотношение сторон : 2,40:1
Режим частоты кадров : Постоянный
Частота кадров : 23,976 кадра/сек
Цветовое пространство : YUV
Субдискретизация насыщенности : 4:2:0
Битовая глубина : 8 бит
Тип развёртки : Прогрессивная
Бит/(Пиксели*Кадры) : 0.251
Размер потока : 6,64 Гбайт (81%)
Заголовок : The.Frozen.Ground.2013
Библиотека кодирования : x264 core 138 r2356 a1d3d17
Настройки программы : cabac=1 / ref=5 / deblock=1:-3:-3 / analyse=0x3:0x113 / me=umh / subme=10 / psy=1 / psy_rd=1.00:0.05 / mixed_ref=1 / me_range=32 / chroma_me=1 / trellis=2 / 8x8dct=1 / cqm=0 / deadzone=21,11 / fast_pskip=0 / chroma_qp_offset=-2 / threads=18 / lookahead_threads=1 / sliced_threads=0 / nr=0 / decimate=1 / interlaced=0 / bluray_compat=0 / constrained_intra=0 / bframes=4 / b_pyramid=2 / b_adapt=2 / b_bias=0 / direct=3 / weightb=1 / open_gop=0 / weightp=2 / keyint=250 / keyint_min=23 / scenecut=40 / intra_refresh=0 / rc=2pass / mbtree=0 / bitrate=9230 / ratetol=1.0 / qcomp=0.70 / qpmin=0 / qpmax=69 / qpstep=4 / cplxblur=20.0 / qblur=0.5 / ip_ratio=1.40 / pb_ratio=1.30 / aq=2:1.00
Язык : English
Default : Да
Forced : Нет

Аудио #1
Идентификатор : 2
Формат : AC-3
Формат/Информация : Audio Coding 3
Расширение режима : CM (complete main)
Параметр Endianness формата : Big
Идентификатор кодека : A_AC3
Продолжительность : 1 ч. 45 м.
Вид битрейта : Постоянный
Битрейт : 384 Кбит/сек
Каналы : 6 каналов
Расположение каналов : Front: L C R, Side: L R, LFE
Частота : 48,0 КГц
Битовая глубина : 16 бит
Метод сжатия : С потерями
Размер потока : 290 Мбайт (3%)
Язык : Russian
Default : Да
Forced : Нет

Аудио #2
Идентификатор : 3
Формат : DTS
Формат/Информация : Digital Theater Systems
Режим : 16
Параметр Endianness формата : Big
Идентификатор кодека : A_DTS
Продолжительность : 1 ч. 45 м.
Вид битрейта : Постоянный
Битрейт : 1509 Кбит/сек
Каналы : 6 каналов
Расположение каналов : Front: L C R, Side: L R, LFE
Частота : 48,0 КГц
Битовая глубина : 24 бит
Метод сжатия : С потерями
Размер потока : 1,11 Гбайт (14%)
Заголовок : DTS-CORE 1536K
Язык : English
Default : Нет
Forced : Нет
Свернуть
Знаете ли вы, что...
Фильм основан на реальных событиях.
Свернуть
Скриншоты
Изображение
Изображение
Изображение
Изображение
Свернуть
Не в сети
Профиль  
 Добавлено: 2013-10-04 19:22 (спустя 17 часов)
Аватара пользователя
Стаж: 3 года 2 месяца
Сообщений: 3
Как фильм? Стоит качать?
Не в сети
Профиль  
 Добавлено: 2013-10-05 18:15 (спустя 22 часа)
Аватара пользователя
Стаж: 8 лет 9 месяцев
Сообщений: 1170
Спасибок: 1294
Лайков: 7
уже давно фильмы с Кейджем меня настораживают
Не в сети
Профиль  
 Добавлено: 2013-10-07 18:10 (спустя 1 день 23 часа)
Аватара пользователя
Стаж: 7 лет 2 месяца
Сообщений: 82
Спасибок: 2
Лайков: 1
Звук просто ужасен. Ничего не слышно! Ни на компе ни на F8000. В топку!
Не в сети
Профиль  
Начать новую темуОтветить на тему  [ Сообщений: 4 ] 
Вы не можете начинать темы
Вы не можете отвечать на сообщения
Вы не можете редактировать свои сообщения
Вы не можете удалять свои сообщения