Правила форума

  • В этом разделе создание новых тем Запрещено.
  • Для создания новых тем пользуйтесь Корневым разделом DVD и HD фильмы.
Начать новую темуОтветить на тему  [ Сообщений: 3 ] 
Торрент файл
Размер: 9.86 GB • Зарегистрирован: 3 года 6 месяцев • Статус: Проверено
Скачан: 115 раз • Желающих скачать: 0 • Поблагодарили: 40 раз
 Раздают: 0  |  0 KB/s  ]   Качают: 0  |  0 KB/s  ] 
 Полного источника не было 1 год 5 месяцев 
Сообщения
 Добавлено: 2013-06-03 13:52
DVD Release Group
Аватара пользователя
Стаж: 7 лет 1 месяц
Сообщений: 3563
Спасибок: 247494
Лайков: 1020
Место под соснами

The Place Beyond the Pines

«Месть в наследство»


Изображение


Год выпуска: 2012
Страна: США
Жанр: Драма, криминал
Продолжительность: 02:20:13
Перевод: Профессиональный (полное дублирование)
Субтитры: Русские
Режиссер: Дерек Сиенфрэнс
В ролях: Райан Гослинг, Рэй Лиотта, Ева Мендес, Брэдли Купер, Бен Мендельсон, Роуз Бирн, Махершалалхашбаз Али, Брюс Гринвуд, Харрис Юлин, Крэйг Ван Хук
Описание: История профессионального мотогонщика, который начинает грабить банки, чтобы содержать новорожденного сына. Однажды на его пути встает полицейский, и столкновение парней перерастает в личную войну.
Изображение
Sample:
http://sendfile.su/820778
Дополнительно: Сохранены оригинальные чаптеры как на Blu-Ray.
Качество: BDRip 720p
Формат: MKV
Видео кодек: H.264
Аудио кодек: DTS
Видео: 1280x536 24fps 6845kbps
Аудио:
Аудио Rus: 48kHz 6ch 1510Kbps
Аудио Eng: 48kHz 6ch 1510Kbps
"MediaInfo"
Формат : Matroska
Версия формата : Version 2
Размер файла : 9,86 Гбайт
Продолжительность : 2 ч. 20 м.
Общий поток : 10,1 Мбит/сек
Дата кодирования : UTC 2013-06-03 04:39:24
Программа кодирования : mkvmerge v5.2.0 ('I can't explain') built on Dec 18 2011 18:12:03
Библиотека кодирования : libebml v1.2.3 + libmatroska v1.3.0

Видео
Идентификатор : 1
Формат : AVC
Формат/Информация : Advanced Video Codec
Профиль формата : High@L4.1
Параметр CABAC формата : Да
Параметр ReFrames формата : 12 кадров
Идентификатор кодека : V_MPEG4/ISO/AVC
Продолжительность : 2 ч. 20 м.
Битрейт : 6845 Кбит/сек
Ширина : 1280 пикселей
Высота : 536 пикселей
Соотношение сторон : 2,40:1
Частота кадров : 24,000 кадра/сек
Цветовое пространство : YUV
Субдискретизация насыщенности : 4:2:0
Битовая глубина : 8 бит
Тип развёртки : Прогрессивная
Бит/(Пиксели*Кадры) : 0.416
Размер потока : 6,70 Гбайт (68%)
Заголовок : The.Place.Beyond.the.Pines.2012.720p.BluRay.DTS.x264-IRONCLUB
Библиотека кодирования : x264 core 133 r2334kMod a3ac64b
Настройки программы : cabac=1 / ref=12 / deblock=1:-3:-3 / analyse=0x3:0x113 / me=umh / subme=11 / psy=1 / fade_compensate=0.00 / psy_rd=1.20:0.00 / mixed_ref=1 / me_range=48 / chroma_me=1 / trellis=2 / 8x8dct=1 / cqm=0 / deadzone=21,11 / fast_pskip=0 / chroma_qp_offset=-2 / threads=12 / lookahead_threads=2 / sliced_threads=0 / nr=0 / decimate=1 / interlaced=0 / bluray_compat=0 / constrained_intra=0 / bframes=8 / b_pyramid=2 / b_adapt=2 / b_bias=0 / direct=3 / weightb=1 / open_gop=0 / weightp=2 / keyint=250 / keyint_min=24 / scenecut=40 / intra_refresh=0 / rc_lookahead=60 / rc=crf / mbtree=0 / crf=18.0000 / qcomp=0.75 / qpmin=0 / qpmax=69 / qpstep=4 / vbv_maxrate=50000 / vbv_bufsize=62500 / crf_max=0.0 / nal_hrd=none / ip_ratio=1.30 / pb_ratio=1.20 / aq=1:0.80
Язык : English
Default : Да
Forced : Да
Коэффициенты матрицы : BT.709-5, BT.1361, IEC 61966-2-4 709, SMPTE RP177

Аудио #1
Идентификатор : 2
Формат : DTS
Формат/Информация : Digital Theater Systems
Идентификатор кодека : A_DTS
Продолжительность : 2 ч. 20 м.
Вид битрейта : Постоянный
Битрейт : 1510 Кбит/сек
Каналы : 6 каналов
Расположение каналов : Front: L C R, Side: L R, LFE
Частота : 48,0 КГц
Битовая глубина : 16 бит
Метод сжатия : С потерями
Размер потока : 1,48 Гбайт (15%)
Заголовок : DTS 5.1 @ 1536 kbps
Язык : Russian
Default : Да
Forced : Да

Аудио #2
Идентификатор : 3
Формат : DTS
Формат/Информация : Digital Theater Systems
Идентификатор кодека : A_DTS
Продолжительность : 2 ч. 20 м.
Вид битрейта : Постоянный
Битрейт : 1510 Кбит/сек
Каналы : 6 каналов
Расположение каналов : Front: L C R, Side: L R, LFE
Частота : 48,0 КГц
Битовая глубина : 16 бит
Метод сжатия : С потерями
Размер потока : 1,48 Гбайт (15%)
Заголовок : DTS 5.1 @ 1536 kbps
Язык : English
Default : Нет
Forced : Нет

Текст
Идентификатор : 4
Формат : UTF-8
Идентификатор кодека : S_TEXT/UTF8
Идентификатор кодека/Информация : UTF-8 Plain Text
Язык : Russian
Default : Нет
Forced : Нет

Меню
00:00:00.000 : en:00:00:00.000
00:11:50.375 : en:00:11:50.375
00:21:43.291 : en:00:21:43.291
00:33:08.708 : en:00:33:08.708
00:40:35.916 : en:00:40:35.916
00:52:02.666 : en:00:52:02.666
01:03:16.208 : en:01:03:16.208
01:12:53.625 : en:01:12:53.625
01:22:57.500 : en:01:22:57.500
01:34:39.500 : en:01:34:39.500
01:49:16.000 : en:01:49:16.000
02:06:21.208 : en:02:06:21.208
Свернуть

"Скриншоты"
Изображение
Изображение
Изображение
Изображение
Изображение
Изображение
Изображение
Изображение
Изображение
Изображение
Свернуть

Раздача группы:
Изображение
Не в сети
Профиль  
 Добавлено: 2013-06-04 00:28 (спустя 10 часов)
Аватара пользователя
Стаж: 5 лет 4 месяца
Возраст: 26
Сообщений: 1658
Спасибок: 45809
Лайков: 69
rastor
:co_ol:
_________________
S.T.A.L.K.E.R.: Lost Alpha
Не в сети
Профиль  
 Добавлено: 2013-06-19 22:40 (спустя 15 дней)
Техподдержка со знаниями
Аватара пользователя
Стаж: 8 лет 5 месяцев
Сообщений: 3327
Спасибок: 150
Лайков: 37
На мой взгляд фильм скучноват и чересчур затянут. "Душевные переживания" всех героев на лице практически не отражаются и это полная заслуга исполнителей главных ролей. Вообще сюжет высосан из пальца, каких-то "вызовов" зрителю он не бросает. Ну то есть "криминал" - да, но не "драма", увы. Кстати, сосён в фильме много, но они никак не участвуют в развитии сюжета, разве что герои перемещаются среди них. Это я к странному красивому названию. К слову, те немногие кадры пейзажей (особенно в последних сценах) действительно удались, но смотреть более 2 часов фильм только ради этого, конечно, не стоит.

ЗЫ
Вы не находите, что Джейсон (в исполнении Дэйна ДеХаана) в некоторых ракурсах здорово похож на молодого Бреда Питта? :hi_hi_hi:
Не в сети
Профиль  
Начать новую темуОтветить на тему  [ Сообщений: 3 ] 
Вы не можете начинать темы
Вы не можете отвечать на сообщения
Вы не можете редактировать свои сообщения
Вы не можете удалять свои сообщения