Правила форума

  • В этом разделе создание новых тем Запрещено.
  • Для создания новых тем пользуйтесь Корневым разделом DVD и HD фильмы.
Начать новую темуОтветить на тему  [ Сообщений: 3 ] 
Торрент файл
Размер: 13.78 GB • Зарегистрирован: 3 года 6 месяцев • Статус: Проверено
Скачан: 279 раз • Желающих скачать: 0 • Поблагодарили: 56 раз
 Раздают: 0  |  0 KB/s  ]   Качают: 0  |  0 KB/s  ] 
 Полного источника не было 1 час 14 минут 
Сообщения
 Добавлено: 2013-06-04 03:13
Аватара пользователя
Стаж: 9 лет 1 месяц
Сообщений: 8018
Спасибок: 122267
Лайков: 1194
Место под соснами / The Place Beyond the Pines

«Месть в наследство»

Изображение


Год выпуска: 2012
Страна: Изображение США
Жанр: драма, криминал
Продолжительность: 02:20:13
Субтитры: Русские
Перевод: Профессиональный (полное дублирование) [Лицензия]


Режиссер: Дерек Сиенфрэнс
Сценарий: Дерек Сиенфрэнс, Бен Коссио, Дариус Мардер
Продюсер: Линетт Хауэлл, Сидни Киммел, Алекс Орловский
Оператор: Шон Боббитт
Композитор: Майк Паттон

В ролях: Райан Гослинг, Брэдли Купер, Ева Мендес, Рэй Лиотта, Бен Мендельсон, Роуз Бирн, Махершалалхашбаз Али, Брюс Гринвуд, Харрис Юлин, Дэйн ДеХаан

Описание: История профессионального мотогонщика, который начинает грабить банки, чтобы содержать новорожденного сына. Однажды на его пути встает полицейский, и столкновение парней перерастает в личную войну.

Изображение Изображение

Релиз группы: Изображение Раздача группы: Изображение

Качество: BDRip (1080p)
Формат: Matroska
Видео: MPEG-4 AVC, 10.8 Мбит/с, 1920x804
Аудио №1: Русский (DTS, 48,0 КГц, 6 ch, 1510 Кбит/c)
Аудио №2: Английский (DTS, 48,0 КГц, 6 ch, 1510 Кбит/c)

MediaInfo
Общее
Уникальный идентификатор : 202186524425646814832785917476219221954 (0x981BB54AE916396A96FD1EF22C9177C2)
Полное имя : C:\Фильмы\The.Place.Beyond.the.Pines.2012.1080p.BluRay.x264.DTS.Rus.Eng.R.G.Daredevil.mkv
Формат : Matroska
Версия формата : Version 2
Размер файла : 13,8 Гбайт
Продолжительность : 2 ч. 20 м.
Общий поток : 14,1 Мбит/сек
Название фильма : IRONCLUB
Дата кодирования : UTC 2013-06-03 17:02:53
Программа кодирования : mkvmerge v5.2.0 ('I can't explain') built on Dec 18 2011 18:12:03
Библиотека кодирования : libebml v1.2.3 + libmatroska v1.3.0

Видео
Идентификатор : 1
Формат : AVC
Формат/Информация : Advanced Video Codec
Профиль формата : High@L4.1
Параметр CABAC формата : Да
Параметр ReFrames формата : 5 кадров
Идентификатор кодека : V_MPEG4/ISO/AVC
Продолжительность : 2 ч. 20 м.
Битрейт : 10,8 Мбит/сек
Ширина : 1920 пикселей
Высота : 804 пикселя
Соотношение сторон : 2,40:1
Режим частоты кадров : Постоянный
Частота кадров : 24,000 кадра/сек
Цветовое пространство : YUV
Субдискретизация насыщенности : 4:2:0
Битовая глубина : 8 бит
Тип развёртки : Прогрессивная
Бит/(Пиксели*Кадры) : 0.291
Размер потока : 10,5 Гбайт (77%)
Заголовок : The.Place.Beyond.the.Pines.2012.1080p.BluRay.DTS.x264-IRONCLUB
Библиотека кодирования : x264 core 130 r2273 b3065e6
Настройки программы : cabac=1 / ref=5 / deblock=1:-3:-3 / analyse=0x3:0x113 / me=umh / subme=11 / psy=1 / psy_rd=1.20:0.00 / mixed_ref=1 / me_range=48 / chroma_me=1 / trellis=2 / 8x8dct=1 / cqm=0 / deadzone=21,11 / fast_pskip=0 / chroma_qp_offset=-2 / threads=12 / lookahead_threads=2 / sliced_threads=0 / nr=0 / decimate=1 / interlaced=0 / bluray_compat=0 / constrained_intra=0 / bframes=8 / b_pyramid=2 / b_adapt=2 / b_bias=0 / direct=3 / weightb=1 / open_gop=0 / weightp=2 / keyint=250 / keyint_min=24 / scenecut=40 / intra_refresh=0 / rc_lookahead=192 / rc=crf / mbtree=0 / crf=20.5 / qcomp=0.75 / qpmin=0 / qpmax=69 / qpstep=4 / vbv_maxrate=50000 / vbv_bufsize=62500 / crf_max=0.0 / nal_hrd=none / ip_ratio=1.30 / pb_ratio=1.20 / aq=1:0.80
Язык : English
Default : Да
Forced : Да
Коэффициенты матрицы : BT.709

Аудио #1
Идентификатор : 2
Формат : DTS
Формат/Информация : Digital Theater Systems
Режим : 16
Параметр Endianness формата : Big
Идентификатор кодека : A_DTS
Продолжительность : 2 ч. 20 м.
Вид битрейта : Постоянный
Битрейт : 1509 Кбит/сек
Каналы : 6 каналов
Расположение каналов : Front: L C R, Side: L R, LFE
Частота : 48,0 КГц
Битовая глубина : 16 бит
Метод сжатия : С потерями
Размер потока : 1,48 Гбайт (11%)
Заголовок : DTS 5.1 @ 1536 kbps
Язык : Russian
Default : Да
Forced : Да

Аудио #2
Идентификатор : 3
Формат : DTS
Формат/Информация : Digital Theater Systems
Режим : 16
Параметр Endianness формата : Big
Идентификатор кодека : A_DTS
Продолжительность : 2 ч. 20 м.
Вид битрейта : Постоянный
Битрейт : 1509 Кбит/сек
Каналы : 6 каналов
Расположение каналов : Front: L C R, Side: L R, LFE
Частота : 48,0 КГц
Битовая глубина : 16 бит
Метод сжатия : С потерями
Размер потока : 1,48 Гбайт (11%)
Заголовок : DTS 5.1 @ 1536 kbps
Язык : English
Default : Нет
Forced : Нет

Текст
Идентификатор : 4
Формат : UTF-8
Идентификатор кодека : S_TEXT/UTF8
Идентификатор кодека/Информация : UTF-8 Plain Text
Язык : Russian
Default : Нет
Forced : Нет

Меню
00:00:00.000 : en:00:00:00.000
00:11:50.375 : en:00:11:50.375
00:21:43.291 : en:00:21:43.291
00:33:08.708 : en:00:33:08.708
00:40:35.916 : en:00:40:35.916
00:52:02.666 : en:00:52:02.666
01:03:16.208 : en:01:03:16.208
01:12:53.625 : en:01:12:53.625
01:22:57.500 : en:01:22:57.500
01:34:39.500 : en:01:34:39.500
01:49:16.000 : en:01:49:16.000
02:06:21.208 : en:02:06:21.208
Свернуть
Знаете ли вы, что...
Мэри Элизабет Уинстэд и Джиннифер Гудвин пробовались на роль Дженнифер.

Первоначально роль Дженнифер получила Грета Гервиг, но она вынуждена была отказаться из-за несогласованности расписаний съемок.

Большая часть фильма была отснята в городе Скенектади, штат Нью-Йорк. Название фильма пошло от названия этого города, которое с языка могавков переводится как «место под соснами».

По словам Райана Гослинга, все сцены ограбления банка были сняты за один дубль.

Все банки, которые грабят в этом фильме, являются действующими. Первый национальный банк Шотландии разрешил проводить съемки в нескольких своих филиалах.

По словам режиссера Дерека Сиенфрэнса, он встретился с Райаном Гослингом в доме его агента в 2007 году, во время работы над фильмом «Валентинка» (2010). Он спросил Гослинга: «Есть ли в вашей жизни что-то, чего вы еще не делали, но хотели бы попробовать?» На что Гослинг ответил, что всегда хотел ограбить банк. Сиенфрэнс спросил его, как бы он ограбил банк, и Гослинг описал ограбление на мотоцикле, потому что он быстрый и мобильный, а шлем поможет скрыть свою личность. Он сказал, что после ограбления оставил бы мотоцикл в кузове грузовика, чтобы полиция не нашла его. Сиенфрэнс рассказал ему, что на самом деле пишет сценарий об ограблении банка именно таким образом, и он чувствовал, что Гослинг должен сыграть эту роль.

Режиссер Дерек Сиенфрэнс заявил, что не стал бы делать фильм без Брэдли Купера в роли Кросса. На самом деле он провел 5 часов в пути до Торонто, чтобы лично встретиться с Купером и убедить его согласиться на эту роль. Сиенфрэнс сказал, что он писал эту роль именно под Купера — «парень, который щеголяет как герой, а внутри чувствует себя прогнившим».

Райан Гослинг предложил Еве Мендес попробоваться на роль Ромины.

В фильме появляется жена Сиенфрэнса, Шеннон Пламб, в роли женщины в магазине мороженого.

За два месяца до съемок фильма Андрий Парех, который был оператором фильма «Валентинка» (2010), отказался заниматься этим проектом в значительной степени из-за трюка Globe of Death в начале фильма (трюк с мотоциклистами внутри клетки в виде сферы). По словам Дерека Сиенфрэнса, Парех разговаривал с ним по телефону и сказал, что отказался продолжать работу над фильмом, потому что у него был сон, в котором его убили во время съемок. И этот сон почти сбылся: во время съемок этого трюка оператора Шона Боббитта чуть не убили. На него упал мотоцикл во время съемок трюка внутри клетки.

Дерек Сиенфрэнс сделал 22 дубля сцены, в которой Райан Гослинг ускоряется на мотоцикле, чтобы проскочить перекресток, прежде чем 36 автомобилей врезаются друг в друга. Сиенфрэнс хотел, чтобы в этой сцене снимался каскадер, но тогда сразу было бы заметно, что это не Гослинг. Он также рассказал, что в каждом из этих дублей он от нервов стискивал свою рубашку зубами, и к тому моменту, когда получился удачный дубль, он успел прогрызть в ней дыру.

Дерек Сиенфрэнс сказал, что на съемки сцен погони в фильме его вдохновили телевизионные шоу в духе «Полицейских» (1989) и America`s Wildest Police Chases («Невероятные погони полицейских в Америке»).

Во время сцены в отделе полиции, где показывают стопку украденных 20-долларовых купюр, можно заметить, что дизайн купюр не соответствует времени, в котором происходят события фильма (1997 год). Такие банкноты появились только в 1998 году.

Свернуть
Скриншоты
Изображение
Изображение
Изображение
Изображение
Свернуть
Не в сети
Профиль  
 Добавлено: 2013-06-05 23:02 (спустя 1 день 19 часов)
Аватара пользователя
Стаж: 8 лет 9 месяцев
Сообщений: 1170
Спасибок: 1294
Лайков: 7
уааау, уже вышел :) очень хотел посмотреть
Не в сети
Профиль  
 Добавлено: 2013-06-08 21:01 (спустя 2 дня 21 час)
Кинокомментатор
Аватара пользователя
Стаж: 9 лет 1 месяц
Сообщений: 1332
Лайков: 54
на столько крутое кино %) просто очень крутое! реально... смотреть ли!?) это глупый вопрос! это не кино! это жизнь! Гослинг проооосто шикарен! я прям его фанат) Купер тоже крайне крут! сюжет что то не вообразимое... про такие фильмы говорят, жалко что я это УЖЕ видел(((
смотреть всем! 9/10
_________________
Я ВКонтакте
Не в сети
Профиль  
Начать новую темуОтветить на тему  [ Сообщений: 3 ] 
Вы не можете начинать темы
Вы не можете отвечать на сообщения
Вы не можете редактировать свои сообщения
Вы не можете удалять свои сообщения