Правила форума

  • В этом разделе создание новых тем Запрещено.
  • Для создания новых тем пользуйтесь Корневым разделом DVD и HD фильмы.
Начать новую темуОтветить на тему  [ Сообщений: 6 ] 
Торрент файл
Размер: 17.29 GB • Зарегистрирован: 3 года 3 месяца • Статус: Проверено
Скачан: 23 раза • Желающих скачать: 0 • Поблагодарили: 7 раз
 Раздают: 0  |  0 KB/s  ]   Качают: 0  |  0 KB/s  ] 
 Полного источника не было 5 месяцев 7 дней 
Сообщения
 Добавлено: 2013-08-25 16:54
Модератор релиз-группы
Аватара пользователя
Стаж: 7 лет 8 месяцев
Возраст: 29
Сообщений: 9789
Спасибок: 23731
Лайков: 103
Изображение

Мы были солдатами
We Were Soldiers


Год выпуска: 2002
Страна: США, Германия
Слоган: «Fathers, Brothers, Husbands & Sons.»
Жанр: боевик, драма, военный, история
Продолжительность: 02:18:31
Перевод: Профессиональный (двухголосый)
Профессиональный (многоголосый, закадровый)
Профессиональный (полное дублирование)
Авторский (Гаврилов Андрей)
Авторский (Живов Юрий)

Режиссер: Рэндалл Уоллес
Сценарий: Рэндалл Уоллес, Харольд Дж. Мур, Джозеф Л. Гэлловэй
Продюсер: Эвелин Бэнди, Брюс Дэвей, Уильям Хой, Джим Лемли, Даниэль Леммон
Оператор: Дин Семлер
Композитор: Ник Гленни-Смит
В ролях: Мэл Гибсон, Мэделин Стоу, Грег Киннер, Сэм Эллиотт, Крис Клейн, Кери Рассел, Барри Пеппер, Дон Дуонг, Райан Херст, Роберт Бэгнелл, Марк Блукас, Джош Догерти
Бюджет: $75 000 000
Сборы в США: $78 122 718
Сборы в России: $232 936
Сборы в мире: $114 660 784
Мировая премьера: 25 февраля 2002
Релиз на DVD: 22 ноября 2007, «Союз-Видео»
Описание: Рассказ о героях и их героизме, которых незаслуженно забыли при сражении под Ай Дрэнгом. В первом крупном сражении между американскими и вьетконговскими войсками 395 американцев оказалось в окружении, причем враг значительно превосходил их по численности. События происходили с 23 октября по 26 ноября 1965 года.

Изображение User Rating: 7.532 (7212)
Изображение User Rating: 7.00 (69 918)
MPAA: R - Лицам до 17 лет обязательно присутствие взрослого
Раздача группы: Изображение
Релиз группы: Изображение
Качество: BDRip, 1080p
Формат: MKV
Видео: AVC; 1920x816 (2.35:1); 11672 Kbps; 23,976 fps; 0,311 bit/pixel
Аудио №1: русский; AC3; 448 Kbps; CBR; 6 ch
Аудио №2: DTS; 1510 Kbps; CBR; 6 ch; 16 bit
Аудио №3: AC3; 448 Kbps; CBR; 6 ch
Аудио №4: DTS; 1510 Kbps; CBR; 6 ch; 16 bit
Аудио №5: AC3; 192 Kbps; CBR; 3 ch
Аудио №6: DTS; 1510 Kbps; CBR; 6 ch; 24 bit
Аудио №7: AC3; 224 Kbps; CBR; 2 ch

Субтитры №1: русские
Субтитры №2: английские
Субтитры №3: английские

mediainfo
Общее
Уникальный идентификатор : 247561916100362828987009094122689021800 (0xBA3EB0D3BB1B5E80B1C0E50826784768)
Полное имя : D:\TORRENT\Mi.bili.soldatami.2002.x264.BDRip.mkv
Формат : Matroska
Размер файла : 17,3 Гбайт
Продолжительность : 2 ч. 18 м.
Общий поток : 17,9 Мбит/сек
Дата кодирования : UTC 2012-05-04 11:21:09
Программа кодирования : mkvmerge v5.4.0 ('Piper') built on Mar 10 2012 13:34:39
Библиотека кодирования : libebml v1.2.3 + libmatroska v1.3.0
Обложка : Yes / Yes

Видео
Идентификатор : 1
Формат : AVC
Формат/Информация : Advanced Video Codec
Профиль формата : High@L4.1
Параметр CABAC формата : Да
Параметр ReFrames формата : 5 кадров
Идентификатор кодека : V_MPEG4/ISO/AVC
Продолжительность : 2 ч. 18 м.
Битрейт : 12,0 Мбит/сек
Ширина : 1920 пикс.
Высота : 816 пикс.
Соотношение сторон : 2,35:1
Частота кадров : 23,976 кадр/сек
Цветовое пространство : YUV
Подвыборка цветности : 4:2:0
Битовая глубина : 8 бит
Тип развёртки : Прогрессивная
Бит/(Пиксели*Кадры) : 0.320
Размер потока : 11,3 Гбайт (65%)
Библиотека кодирования : x264 core 64 r987M e71168d
Настройки программы : cabac=1 / ref=5 / deblock=1:-2:-1 / analyse=0x3:0x113 / me=umh / subme=6 / psy_rd=1.0:0.0 / brdo=1 / mixed_ref=1 / me_range=16 / chroma_me=1 / trellis=1 / 8x8dct=1 / cqm=0 / deadzone=21,11 / chroma_qp_offset=-2 / threads=6 / nr=0 / decimate=1 / mbaff=0 / bframes=16 / b_pyramid=1 / b_adapt=1 / b_bias=0 / direct=3 / wpredb=1 / bime=1 / keyint=250 / keyint_min=25 / scenecut=40(pre) / rc=2pass / bitrate=12031 / ratetol=1.0 / qcomp=0.60 / qpmin=10 / qpmax=51 / qpstep=4 / cplxblur=20.0 / qblur=0.5 / ip_ratio=1.40 / pb_ratio=1.30 / aq=1:1.00
Язык : English

Аудио #1
Идентификатор : 2
Формат : AC-3
Формат/Информация : Audio Coding 3
Расширение режима : CM (complete main)
Идентификатор кодека : A_AC3
Продолжительность : 2 ч. 18 м.
Вид битрейта : Постоянный
Битрейт : 448 Кбит/сек
Каналы : 6 каналов
Расположение каналов : Front: L C R, Side: L R, LFE
Частота : 48,0 КГц
Битовая глубина : 16 бит
Метод сжатия : С потерями
Размер потока : 444 Мбайт (3%)
Заголовок : Dub @ DD 5.1 @ 448 kbps
Язык : Russian

Аудио #2
Идентификатор : 3
Формат : DTS
Формат/Информация : Digital Theater Systems
Идентификатор кодека : A_DTS
Продолжительность : 2 ч. 18 м.
Вид битрейта : Постоянный
Битрейт : 1510 Кбит/сек
Каналы : 6 каналов
Расположение каналов : Front: L C R, Side: L R, LFE
Частота : 48,0 КГц
Битовая глубина : 16 бит
Метод сжатия : С потерями
Размер потока : 1,46 Гбайт (8%)

Аудио #3
Идентификатор : 4
Формат : AC-3
Формат/Информация : Audio Coding 3
Расширение режима : CM (complete main)
Идентификатор кодека : A_AC3
Продолжительность : 2 ч. 18 м.
Вид битрейта : Постоянный
Битрейт : 448 Кбит/сек
Каналы : 6 каналов
Расположение каналов : Front: L C R, Side: L R, LFE
Частота : 48,0 КГц
Битовая глубина : 16 бит
Метод сжатия : С потерями
Размер потока : 444 Мбайт (3%)

Аудио #4
Идентификатор : 5
Формат : DTS
Формат/Информация : Digital Theater Systems
Идентификатор кодека : A_DTS
Продолжительность : 2 ч. 18 м.
Вид битрейта : Постоянный
Битрейт : 1510 Кбит/сек
Каналы : 6 каналов
Расположение каналов : Front: L C R, Side: L R, LFE
Частота : 48,0 КГц
Битовая глубина : 16 бит
Метод сжатия : С потерями
Размер потока : 1,46 Гбайт (8%)

Аудио #5
Идентификатор : 6
Формат : AC-3
Формат/Информация : Audio Coding 3
Расширение режима : CM (complete main)
Идентификатор кодека : A_AC3
Продолжительность : 2 ч. 18 м.
Вид битрейта : Постоянный
Битрейт : 192 Кбит/сек
Каналы : 3 канала
Расположение каналов : Front: L C R
Частота : 48,0 КГц
Битовая глубина : 16 бит
Метод сжатия : С потерями
Размер потока : 190 Мбайт (1%)

Аудио #6
Идентификатор : 7
Формат : DTS
Формат/Информация : Digital Theater Systems
Профиль формата : ES
Идентификатор кодека : A_DTS
Продолжительность : 2 ч. 18 м.
Вид битрейта : Постоянный
Битрейт : 1510 Кбит/сек
Каналы : 6 каналов
Расположение каналов : Front: L C R, Side: L R, LFE
Частота : 48,0 КГц
Битовая глубина : 24 бит
Метод сжатия : С потерями
Размер потока : 1,46 Гбайт (8%)
Заголовок : Original @ DTS 5.1 @ 1509 kbps
Язык : English

Аудио #7
Идентификатор : 8
Формат : AC-3
Формат/Информация : Audio Coding 3
Расширение режима : CM (complete main)
Идентификатор кодека : A_AC3
Продолжительность : 2 ч. 18 м.
Вид битрейта : Постоянный
Битрейт : 224 Кбит/сек
Каналы : 2 канала
Расположение каналов : Front: L R
Частота : 48,0 КГц
Битовая глубина : 16 бит
Метод сжатия : С потерями
Размер потока : 222 Мбайт (1%)

Текст #1
Идентификатор : 9
Формат : UTF-8
Идентификатор кодека : S_TEXT/UTF8
Идентификатор кодека/Информация : UTF-8 Plain Text
Язык : Russian

Текст #2
Идентификатор : 10
Формат : UTF-8
Идентификатор кодека : S_TEXT/UTF8
Идентификатор кодека/Информация : UTF-8 Plain Text
Заголовок : SDH
Язык : English

Текст #3
Идентификатор : 11
Формат : UTF-8
Идентификатор кодека : S_TEXT/UTF8
Идентификатор кодека/Информация : UTF-8 Plain Text
Язык : English

Меню
00:00:00.000 : en:1. Opening Credits
00:06:54.163 : en:2. "The New Cavalry"
00:12:59.528 : en:3. Future Leader
00:19:26.373 : en:4. Final Prayers
00:27:33.526 : en:5. Leaving Party
00:35:14.362 : en:6. Saying Goodbye
00:40:34.431 : en:7. "Find The Enemy, And Kill 'Em"
00:51:24.790 : en:8. The Creek Bed
00:59:11.589 : en:9. Lost Platoon
01:07:07.690 : en:10. The Ridge
01:14:44.438 : en:11. Telegrams
01:20:58.353 : en:12. "Grab Them By The Belt Buckle"
01:26:44.324 : en:13. Surrounded
01:34:32.667 : en:14. "Broken Arrow"
01:43:40.631 : en:15. Julie's Letter
01:49:02.619 : en:16. Waiting For Dawn
01:53:14.579 : en:17. The Third Day
01:58:13.503 : en:18. Aftermath
02:06:17.319 : en:19. "Daddy's Home!"
02:11:50.569 : en:20. Closing Credits

Свернуть
"Знаете ли Вы, что..."
  • К фильму было отснято более 260 километров кинопленки. Монтажной группе понадобилось 6 суток, чтобы отсмотреть материал.
  • Первоначально проект назывался «Потерянный патруль»; его литературной основой стала книга бывшего подполковника американской армии Хэла Мура и репортера Джо Гэлловэя «Мы были солдатами… и молодыми».
Свернуть
Скриншоты

Изображение
Изображение
Изображение
Изображение
Изображение
Изображение
Изображение
Изображение
Изображение
Свернуть
Не в сети
Профиль  
 Добавлено: 2013-08-26 01:59 (спустя 9 часов)
Аватара пользователя
Стаж: 8 лет 8 месяцев
Сообщений: 1702
Спасибок: 104
Лайков: 152
спасибо, не помню смотрел или нет, все равно скачаю и посмотрю, люблю такие фильмы :co_ol:
блин, на размер не посмотрел :sh_ok: .. ну да ладно пусть будет, уже качается)))
Не в сети
Профиль  
 Добавлено: 2013-08-26 18:49 (спустя 16 часов)
Аватара пользователя
Стаж: 7 лет 2 месяца
Сообщений: 119
Лайков: 2
Спасибо большое за фильм :)
Только на дубляже почему-то звук отстает немного...
Не в сети
Профиль  
 Добавлено: 2013-08-27 00:33 (спустя 5 часов)
Аватара пользователя
Стаж: 8 лет 8 месяцев
Сообщений: 1702
Спасибок: 104
Лайков: 152

NiXon11:

Спасибо большое за фильм :)
Только на дубляже почему-то звук отстает немного...
подтверждаю, смотреть невозможно, такая раздача не маленькая и такой облом со звуком... Что можно сделать, как звук сместить?
Не в сети
Профиль  
 Добавлено: 2013-10-15 17:18 (спустя 1 месяц 19 дней)
Аватара пользователя
Стаж: 7 лет 7 месяцев
Сообщений: 77
Спасибок: 112
Лайков: 1
В настройках плеера надо подгонять.
Не в сети
Профиль  
 Добавлено: 2013-11-18 18:56 (спустя 1 месяц 3 дня)
Аватара пользователя
Стаж: 8 лет 8 месяцев
Сообщений: 1702
Спасибок: 104
Лайков: 152
п.с. уже тогда давно скачал другую и не парюсь с бубнами... автор не зачет


Тема поднималась пользователем volkov2009 2013-11-18 18:56.
Не в сети
Профиль  
Начать новую темуОтветить на тему  [ Сообщений: 6 ] 
Вы не можете начинать темы
Вы не можете отвечать на сообщения
Вы не можете редактировать свои сообщения
Вы не можете удалять свои сообщения