Правила форума

  • В этом разделе создание новых тем Запрещено.
  • Для создания новых тем пользуйтесь Корневым разделом DVD и HD фильмы.
Начать новую темуОтветить на тему  [ 1 сообщение ] 
Торрент файл
Размер: 7.15 GB • Зарегистрирован: 4 года 7 месяцев • Статус: Проверено
Скачан: 111 раз • Желающих скачать: 0 • Поблагодарили: 17 раз
 Раздают: 0  |  0 KB/s  ]   Качают: 0  |  0 KB/s  ] 
 Полного источника не было 1 год 7 месяцев 
Сообщения
 Добавлено: 2012-04-27 11:39
Модератор
Аватара пользователя
Стаж: 8 лет 7 месяцев
Сообщений: 4965
Спасибок: 110254
Лайков: 18
Изображение

Милый друг / Bel Ami


Год выпуска: 2012
Страна: Франция, Великобритания, Италия
Слоган: «Соблазн. Обольщение. Страсть.»

Жанр: драма
Продолжительность: 01:42:20
Перевод: Профессиональный (полное дублирование)

Режиссер: Деклан Доннеллан, Ник Ормерод
Сценарий: Рэйчел Бенетт, Ги де Мопассан
Продюсер: Уберто Пазолини, Лори Борг, Саймон Фуллер, Чери Хьюз, Илдико Кемени
Оператор: Стефано Фаливене
Композитор: Лэкшман Джозеф Де Сарам, Рэйчел Портман

В ролях: Роберт Паттинсон, Кристина Риччи, Ума Турман, Наталия Тена, Кристин Скотт Томас, Холли Грэйнджер, Колм Мини, Филип Гленистер, Пип Торренс, Джеймс Лэнс, Кристофер Фулфорд, Тодд Петерсон
Дублёры: Александр Гаврилин, Анастасия Нестеренко, Алексей Колган
Сборы в России: $3 146 770
Сборы в мире: $6 044 657

Мировая премьера: 17 февраля 2012
Релиз на DVD: 24 апреля 2012, «Парадиз Медиа»
Релиз на Blu-ray: 24 апреля 2012, «Парадиз Медиа»
Описание: Жоржа влекут деньги, секс и власть. Обольстительная внешность и железные нервы карточного игрока, обворожительные манеры и когти хищника - и Париж, город порока и страсти, лежит у его ног...
Изображение 5.8 (1,824 users) Изображение 6.149 (3 688)
Изображение
MPAA: Изображение - Лицам до 17 лет обязательно присутствие взрослого
Релиз группы: Изображение
"NFO"
Format : Matroska
Format version : Version 2
File size : 7.15 GiB
Duration : 1h 42mn
Overall bit rate : 10.0 Mbps
Movie name : Milyi.Drug.2012.D.BDRip.1080p.Uniongang.tv by FSB
Encoded date : UTC 2012-04-27 03:46:07
Writing application : mkvmerge v5.5.0 ('Healer') built on Apr 6 2012 21:43:24
Writing library : libebml v1.2.3 + libmatroska v1.3.0

Video
ID : 1
Format : AVC
Format/Info : Advanced Video Codec
Format profile : High@L4.1
Format settings, CABAC : Yes
Format settings, ReFrames : 5 frames
Codec ID : V_MPEG4/ISO/AVC
Duration : 1h 42mn
Bit rate : 8 500 Kbps
Width : 1 920 pixels
Height : 800 pixels
Display aspect ratio : 2.40:1
Frame rate : 24.000 fps
Color space : YUV
Chroma subsampling : 4:2:0
Bit depth : 8 bits
Scan type : Progressive
Bits/(Pixel*Frame) : 0.231
Stream size : 5.93 GiB (83%)
Title : Milyi.Drug.2012.D.BDRip.1080p.Uniongang.tv by FSB
Writing library : x264 core 120 r2164+656 2ff844c
Encoding settings : cabac=1 / ref=5 / deblock=1:-2:-1 / analyse=0x3:0x113 / me=umh / subme=11 / psy=1 / fade_compensate=0.00 / psy_rd=1.20:0.00 / mixed_ref=1 / me_range=32 / chroma_me=1 / trellis=2 / 8x8dct=1 / cqm=0 / deadzone=21,11 / fast_pskip=1 / chroma_qp_offset=-2 / threads=6 / sliced_threads=0 / nr=0 / decimate=1 / interlaced=0 / bluray_compat=0 / constrained_intra=0 / fgo=0 / bframes=5 / b_pyramid=2 / b_adapt=2 / b_bias=0 / direct=3 / weightb=1 / open_gop=0 / weightp=2 / keyint=250 / keyint_min=24 / scenecut=40 / intra_refresh=0 / rc=2pass / mbtree=0 / bitrate=8500 / ratetol=1.0 / qcomp=0.60 / qpmin=0 / qpmax=69 / qpstep=4 / cplxblur=20.0 / qblur=0.5 / ip_ratio=1.40 / pb_ratio=1.30 / aq=1:1.00
Language : English
Default : Yes
Forced : No

Audio
ID : 2
Format : DTS
Format/Info : Digital Theater Systems
Codec ID : A_DTS
Duration : 1h 42mn
Bit rate mode : Constant
Bit rate : 1 510 Kbps
Channel(s) : 6 channels
Channel positions : Front: L C R, Side: L R, LFE
Sampling rate : 48.0 KHz
Bit depth : 24 bits
Compression mode : Lossy
Stream size : 1.08 GiB (15%)
Language : Russian
Default : Yes
Forced : No

Menu
00:00:00.000 : ru:00:00:00.000
00:06:39.750 : ru:00:06:39.750
00:11:51.250 : ru:00:11:51.250
00:19:38.500 : ru:00:19:38.500
00:25:03.042 : ru:00:25:03.042
00:33:08.750 : ru:00:33:08.750
00:36:40.833 : ru:00:36:40.833
00:44:03.083 : ru:00:44:03.083
00:55:29.583 : ru:00:55:29.583
01:02:14.167 : ru:01:02:14.167
01:08:27.833 : ru:01:08:27.833
01:14:36.750 : ru:01:14:36.750
01:22:15.250 : ru:01:22:15.250
01:27:59.500 : ru:01:27:59.500
01:34:19.833 : ru:01:34:19.833
Свернуть

Качество: BDRip
Формат: Matroska

Видео: AVC; 1920x800 (2.40:1); 8500 Kbps; 24 fps; 0,231 bpp
Аудио: Russian; DTS; 1509 Kbps; CBR; 6 ch; 24 bit
Дополнительно: Сохранены оригинальные чаптеры как на Blu-ray
"Знаете ли Вы, что..."
  • Главная роль была предложена Николь Кидман, но она была вынуждена отказаться из-за конфликта в графиках съемок.
  • «Милый друг» - экранизация одноименного романа Ги де Мопассана.
Свернуть

"Скриншоты"

Изображение

Изображение

Изображение

Изображение

Свернуть
_________________
Изображение Изображение Изображение
Билайн / АДС добавляйте ретрекер, чтобы качать на скорости 100 Мбит/с
Cкрытый текст
Изображение
Свернуть
Не в сети
Профиль  
Начать новую темуОтветить на тему  [ 1 сообщение ] 
Вы не можете начинать темы
Вы не можете отвечать на сообщения
Вы не можете редактировать свои сообщения
Вы не можете удалять свои сообщения