Правила форума

  • В этом разделе создание новых тем Запрещено.
  • Для создания новых тем пользуйтесь Корневым разделом DVD и HD фильмы.
Начать новую темуОтветить на тему  [ Сообщений: 2 ] 
Торрент файл
Размер: 6.81 GB • Зарегистрирован: 3 года 4 месяца • Статус: Проверено
Скачан: 52 раза • Желающих скачать: 0 • Поблагодарили: 10 раз
 Раздают: 0  |  0 KB/s  ]   Качают: 0  |  0 KB/s  ] 
 Полного источника не было 2 года 3 месяца 
Сообщения
 Добавлено: 2013-07-19 14:44
Книголюб
Аватара пользователя
Стаж: 7 лет 2 месяца
Сообщений: 2823
Спасибок: 48823
Лайков: 73
Миллион для чайников
The Brass Teapot

«Всё, что не убьёт тебя, сделает богаче»


Изображение


Год выпуска: 2012
Страна: США
Жанр: Фэнтези, Триллер, Комедия
Продолжительность: 01:41:28
Перевод: Профессиональный (многоголосый закадровый) (Лицензия)

Режиссёр: Рамаа Мосли
В ролях: Джуно Темпл, Майкл Ангарано, Алексис Бледел, Билли Магнуссен, Алиа Шокат, Бобби Мойнихэн мл., Стив Парк, Бен Раппапорт, Люси Уолтерс, Джек МакБрайер
Описание: Признайтесь, каждому бы хотелось иметь волшебный чайник под кроватью, который выдает по первому требованию наличные?!

Но кто знает, через что должен пройти миллионер? Богатые тоже плачут, ведь чайник производит деньги, как только кто-то из окружающих чувствует боль.

Как далеко готовы зайти ради денег молодожены Джон и Эллис в погоне за богатством?
Рейтинг MPAA: Рейтинг R (Подростки до 17 лет допускаются на фильм только в сопровождении одного из родителей)
Мировая премьера: 8 сентября 2012
Премьера в России: 4 апреля 2013, «Top Film Distribution»
Изображение http://www.kinopoisk.ru/film/627298/

Качество: BDRip 720p
Формат: MKV
Видео кодек: H264 (AVC)
Аудио кодек: AC3 (Dolby Digital)
Видео: 1280x544, ~7463 kbps 23.976 fps
Аудио #1: RUS: AC3: 48.0 KHz 6 ch, 448 kbps
Аудио #2: ENG: DTS: 48.0 KHz 6 ch, 1510 kbps
MediaInfo
Unique ID : 186139646408031622627480428982563590684 (0x8C09311F6847933EA7641366DF2D521C)
Complete name : K:\Torrent\Million dlya chaynikov..mkv
Format : Matroska
Format version : Version 4 / Version 2
File size : 6.81 GiB
Duration : 1h 41mn
Overall bit rate : 9 612 Kbps
Movie name : InterHD
Encoded date : UTC 2013-07-18 16:30:49
Writing application : mkvmerge v6.1.0 ('Old Devil') built on Mar 2 2013 14:32:37
Writing library : libebml v1.3.0 + libmatroska v1.4.0

Video
ID : 1
Format : AVC
Format/Info : Advanced Video Codec
Format profile : High@L4.1
Format settings, CABAC : Yes
Format settings, ReFrames : 12 frames
Codec ID : V_MPEG4/ISO/AVC
Duration : 1h 41mn
Bit rate : 7 462 Kbps
Width : 1 280 pixels
Height : 544 pixels
Display aspect ratio : 2.35:1
Frame rate : 23.976 fps
Color space : YUV
Chroma subsampling : 4:2:0
Bit depth : 8 bits
Scan type : Progressive
Bits/(Pixel*Frame) : 0.447
Stream size : 5.29 GiB (78%)
Title : EbP
Writing library : x264 core 130 r2273 b3065e6
Encoding settings : cabac=1 / ref=12 / deblock=1:-3:-3 / analyse=0x3:0x133 / me=umh / subme=9 / psy=1 / psy_rd=1.10:0.05 / mixed_ref=1 / me_range=32 / chroma_me=1 / trellis=2 / 8x8dct=1 / cqm=0 / deadzone=21,11 / fast_pskip=0 / chroma_qp_offset=-3 / threads=18 / lookahead_threads=4 / sliced_threads=0 / nr=0 / decimate=0 / interlaced=0 / bluray_compat=0 / constrained_intra=0 / bframes=12 / b_pyramid=2 / b_adapt=2 / b_bias=0 / direct=3 / weightb=1 / open_gop=0 / weightp=2 / keyint=250 / keyint_min=23 / scenecut=40 / intra_refresh=0 / rc=crf / mbtree=0 / crf=16.0 / qcomp=0.74 / qpmin=0 / qpmax=69 / qpstep=4 / ip_ratio=1.25 / pb_ratio=1.20 / aq=1:0.65
Language : English
Default : Yes
Forced : No
Matrix coefficients : BT.709-5, BT.1361, IEC 61966-2-4 709, SMPTE RP177

Audio #1
ID : 2
Format : AC-3
Format/Info : Audio Coding 3
Mode extension : CM (complete main)
Codec ID : A_AC3
Duration : 1h 41mn
Bit rate mode : Constant
Bit rate : 448 Kbps
Channel(s) : 6 channels
Channel positions : Front: L C R, Side: L R, LFE
Sampling rate : 48.0 KHz
Bit depth : 16 bits
Compression mode : Lossy
Stream size : 325 MiB (5%)
Language : Russian
Default : Yes
Forced : No

Audio #2
ID : 3
Format : DTS
Format/Info : Digital Theater Systems
Codec ID : A_DTS
Duration : 1h 41mn
Bit rate mode : Constant
Bit rate : 1 510 Kbps
Channel(s) : 6 channels
Channel positions : Front: L C R, Side: L R, LFE
Sampling rate : 48.0 KHz
Bit depth : 24 bits
Compression mode : Lossy
Stream size : 1.07 GiB (16%)
Language : English
Default : No
Forced : No

Text #1
ID : 4
Format : UTF-8
Codec ID : S_TEXT/UTF8
Codec ID/Info : UTF-8 Plain Text
Language : Russian
Default : No
Forced : No

Text #2
ID : 5
Format : UTF-8
Codec ID : S_TEXT/UTF8
Codec ID/Info : UTF-8 Plain Text
Language : English
Default : No
Forced : No

Menu
00:00:00.000 : :Chapter 01
00:09:00.706 : :Chapter 02
00:17:34.803 : :Chapter 03
00:26:13.697 : :Chapter 04
00:35:37.343 : :Chapter 05
00:43:47.374 : :Chapter 06
00:51:37.010 : :Chapter 07
01:01:01.991 : :Chapter 08
01:11:11.809 : :Chapter 09
01:17:19.509 : :Chapter 10
01:26:29.142 : :Chapter 11
01:36:37.374 : :Chapter 12


Свернуть

Скриншоты
Изображение
Изображение
Изображение
Изображение
Свернуть
Не в сети
Профиль  
 Добавлено: 2013-09-02 18:28 (спустя 1 месяц 14 дней)
Стаж: 6 лет 8 месяцев
Сообщений: 33
Спасибок: 3
Посмотреть можно, но не восторг.
Не в сети
Профиль  
Начать новую темуОтветить на тему  [ Сообщений: 2 ] 
Вы не можете начинать темы
Вы не можете отвечать на сообщения
Вы не можете редактировать свои сообщения
Вы не можете удалять свои сообщения