Правила форума

  • В этом разделе создание новых тем Запрещено.
  • Для создания новых тем пользуйтесь Корневым разделом DVD и HD фильмы.
Начать новую темуОтветить на тему  [ Сообщений: 3 ] 
Торрент файл
Размер: 11.79 GB • Зарегистрирован: 3 года 4 месяца • Статус: Проверено
Скачан: 117 раз • Желающих скачать: 0 • Поблагодарили: 33 раза
 Раздают: 0  |  0 KB/s  ]   Качают: 0  |  0 KB/s  ] 
 Полного источника не было 1 год 8 месяцев 
Сообщения
 Добавлено: 2013-07-19 16:35
Аватара пользователя
Стаж: 9 лет 1 месяц
Сообщений: 8018
Спасибок: 122267
Лайков: 1194
Миллион для чайников / The Brass Teapot

«Всё, что не убьёт тебя, сделает богаче»

Изображение


Год выпуска: 2013
Страна: Изображение США
Жанр: фэнтези, триллер, комедия
Продолжительность: 01:51:27
Субтитры: Русские, английские
Перевод: Профессиональный (многоголосый, закадровый) [Лицензия]


Режиссер: Рамаа Мосли
Сценарий: Тим Мэйси, Рамаа Мосли
Продюсер: Даррен Голдберг, Джеймс Грейвз, Рамаа Мосли
Оператор: Питер Саймонит
Композитор: Эндрю Хьюит

В ролях: Джуно Темпл, Майкл Ангарано, Алексис Бледел, Билли Магнуссен, Алиа Шокат, Бобби Мойнихэн мл., Стив Парк, Бен Раппапорт, Люсиль Уолтерс, Джек МакБрайер, Дебра Монк, Майкл Делани, Тара Коуплэнд, Томас Миддлдитч

Описание: Признайтесь, каждому бы хотелось иметь волшебный чайник под кроватью, который выдает по первому требованию наличные?!

Но кто знает, через что должен пройти миллионер? Богатые тоже плачут, ведь чайник производит деньги, как только кто-то из окружающих чувствует боль.

Как далеко готовы зайти ради денег молодожены Джон и Эллис в погоне за богатством?


Изображение Изображение

Раздача группы: Изображение

Качество: BDRip (1080p)
Формат: Matroska
Видео: MPEG-4 AVC, 14.4 Mбит/с, 1920x816, 23.976 кадр/с
Аудио №1: Русский (АС3, 48,0 КГц, 6 ch, 448 Кбит/c)
Аудио №2: Английский (DTS, 48,0 КГц, 6 ch, 1510 Кбит/c)

MediaInfo
Общее
Уникальный идентификатор : 196887674894538089517740717994552980039 (0x941F2FD71B4D62A9BAA30C6BECA5F247)
Полное имя : C:\Фильмы\Million.dlya.chaynikov.2012.P.BDRip.1080p.R.G.Daredevil.mkv
Формат : Matroska
Версия формата : Version 4 / Version 2
Размер файла : 11,8 Гбайт
Продолжительность : 1 ч. 41 м.
Общий поток : 16,6 Мбит/сек
Название фильма : InterHD
Дата кодирования : UTC 2013-07-18 16:37:45
Программа кодирования : mkvmerge v6.1.0 ('Old Devil') built on Mar 2 2013 14:32:37
Библиотека кодирования : libebml v1.3.0 + libmatroska v1.4.0

Видео
Идентификатор : 1
Формат : AVC
Формат/Информация : Advanced Video Codec
Профиль формата : High@L4.1
Параметр CABAC формата : Да
Параметр ReFrames формата : 5 кадров
Идентификатор кодека : V_MPEG4/ISO/AVC
Продолжительность : 1 ч. 41 м.
Битрейт : 14,4 Мбит/сек
Ширина : 1920 пикселей
Высота : 816 пикселей
Соотношение сторон : 2,35:1
Режим частоты кадров : Постоянный
Частота кадров : 23,976 кадра/сек
Цветовое пространство : YUV
Субдискретизация насыщенности : 4:2:0
Битовая глубина : 8 бит
Тип развёртки : Прогрессивная
Бит/(Пиксели*Кадры) : 0.382
Размер потока : 10,2 Гбайт (86%)
Библиотека кодирования : x264 core 132 r2323+704+51 d571b1c tMod [8-bit@4:2:0 X86_64]
Настройки программы : cabac=1 / ref=5 / deblock=1:-3:-3 / analyse=0x3:0x113 / me=umh / subme=11 / psy=1 / fade_compensate=0.00 / psy_rd=1.05:0.00 / mixed_ref=1 / me_range=32 / chroma_me=1 / trellis=2 / 8x8dct=1 / cqm=0 / deadzone=21,11 / fast_pskip=0 / chroma_qp_offset=-2 / threads=36 / lookahead_threads=6 / sliced_threads=0 / nr=0 / decimate=0 / interlaced=0 / bluray_compat=0 / constrained_intra=0 / fgo=0 / bframes=8 / b_pyramid=2 / b_adapt=2 / b_bias=0 / direct=3 / weightb=1 / open_gop=0 / weightp=2 / keyint=240 / keyint_min=24 / scenecut=40 / intra_refresh=0 / rc=crf / mbtree=0 / crf=17.5000 / qcomp=0.70 / qpmin=0 / qpmax=69 / qpstep=4 / ip_ratio=1.20 / pb_ratio=1.20 / aq=4:0.85 / aq-sensitivity=10.00 / aq-factor=1.00:1.00:1.00 / aq2=0 / aq3=0
Язык : English
Default : Да
Forced : Нет

Аудио #1
Идентификатор : 2
Формат : AC-3
Формат/Информация : Audio Coding 3
Расширение режима : CM (complete main)
Параметр Endianness формата : Big
Идентификатор кодека : A_AC3
Продолжительность : 1 ч. 41 м.
Вид битрейта : Постоянный
Битрейт : 448 Кбит/сек
Каналы : 6 каналов
Расположение каналов : Front: L C R, Side: L R, LFE
Частота : 48,0 КГц
Битовая глубина : 16 бит
Метод сжатия : С потерями
Размер потока : 325 Мбайт (3%)
Язык : Russian
Default : Да
Forced : Нет

Аудио #2
Идентификатор : 3
Формат : DTS
Формат/Информация : Digital Theater Systems
Режим : 16
Параметр Endianness формата : Big
Идентификатор кодека : A_DTS
Продолжительность : 1 ч. 41 м.
Вид битрейта : Постоянный
Битрейт : 1509 Кбит/сек
Каналы : 6 каналов
Расположение каналов : Front: L C R, Side: L R, LFE
Частота : 48,0 КГц
Битовая глубина : 24 бит
Метод сжатия : С потерями
Размер потока : 1,07 Гбайт (9%)
Язык : English
Default : Нет
Forced : Нет

Текст #1
Идентификатор : 4
Формат : UTF-8
Идентификатор кодека : S_TEXT/UTF8
Идентификатор кодека/Информация : UTF-8 Plain Text
Язык : Russian
Default : Нет
Forced : Нет

Текст #2
Идентификатор : 5
Формат : UTF-8
Идентификатор кодека : S_TEXT/UTF8
Идентификатор кодека/Информация : UTF-8 Plain Text
Язык : English
Default : Нет
Forced : Нет

Меню
00:00:00.000 : :Chapter 01
00:09:00.706 : :Chapter 02
00:17:34.803 : :Chapter 03
00:26:13.697 : :Chapter 04
00:35:37.343 : :Chapter 05
00:43:47.374 : :Chapter 06
00:51:37.010 : :Chapter 07
01:01:01.991 : :Chapter 08
01:11:11.809 : :Chapter 09
01:17:19.509 : :Chapter 10
01:26:29.142 : :Chapter 11
01:36:37.374 : :Chapter 12
Свернуть
Знаете ли вы, что...
Когда Джон и Элис находятся в библиотеке, Элис вырывает страницу из книги «Магические предметы и зелья». Когда Джон впервые замечает это, то четко видно страницы, между которыми была вырванная. В следующем кадре с Джоном заметно, что это уже совсем другие страницы.
Свернуть
Скриншоты
Изображение
Изображение
Изображение
Изображение
Свернуть
Не в сети
Профиль  
 Добавлено: 2013-07-19 18:08 (спустя 1 час 32 минуты)
Стаж: 8 лет 6 месяцев
Сообщений: 34
сначало показалось что адам сендлер на скринах )
Не в сети
Профиль  
 Добавлено: 2013-07-20 08:41 (спустя 14 часов)
Аватара пользователя
Стаж: 8 лет 11 месяцев
Возраст: 29
Сообщений: 5347
Спасибок: 311
как фильм?
_________________
Маленький Жып на drive2!
Мои игрушки
Intel Pentium D [915 3.0Ghz/GA-8I945PLGE-RH/3Gb Samsung DDR2 6400/Zotac 8800GT CoolVIVA/2Tb WD Green EARX/160Gb Seagate/80Gb WD/Pioneer DVR-108/17" HP1740] - Мой зверь!
Explay Informer 701 [7" 800x480 TFT/CPU 1Ghz BoxChip A10(Cortex A8)/GPU ARM Mali-400/512Mb DDR2/4Gb HDD/1.3Mpx/G-Sensor/3000mah/Wi-Fi b/g/n/Android 4.0.3 Ice Cream Sandwich]
Highscreen Jet Duo [3,2" 320x480 TFT/CPU 800Mhz/GPU Adreno 200/512Mb DDR3/512Mb HDD/2Mpx/G-Sensor/Wi-Fi b/g/Android 2.3]
PlayStation3 160Gb [4.25FW/Resistance3/GoW3/KillZone3/Bulletstorm/InFamous2/Twisted Metall/GT5/Uncharted2/MS:Pacific Rift]
Изображение
Свернуть
PSN Gamer Ranking
Изображение
Свернуть
Не в сети
Профиль  
Начать новую темуОтветить на тему  [ Сообщений: 3 ] 
Вы не можете начинать темы
Вы не можете отвечать на сообщения
Вы не можете редактировать свои сообщения
Вы не можете удалять свои сообщения