Правила форума

  • В этом разделе создание новых тем Запрещено.
  • Для создания новых тем пользуйтесь Корневым разделом DVD и HD фильмы.
Начать новую темуОтветить на тему  [ 1 сообщение ] 
Торрент файл
Размер: 4.64 GB • Зарегистрирован: 4 года 3 месяца • Статус: Проверено
Скачан: 24 раза • Желающих скачать: 0 • Поблагодарили: 11 раз
 Раздают: 0  |  0 KB/s  ]   Качают: 0  |  0 KB/s  ] 
 Полного источника не было 2 года 
Сообщения
 Добавлено: 2012-08-16 17:01
Top-releaser
Аватара пользователя
Стаж: 6 лет 7 месяцев
Сообщений: 2078
Спасибок: 3230
Лайков: 9
Изображение

Мышиная охота / Mousehunt


Год выпуска: 1997
Страна: США
Слоган: «You don't need to be big to be a hero.»
Жанр: комедия, семейный
Продолжительность: 01:37:32
Перевод: Профессиональный (многоголосый, закадровый)
Режиссер: Гор Вербински
Сценарий: Адам Рифкин
Оператор: Фидон Папамайкл
Композитор: Алан Сильвестри
В ролях: Натан Лэйн, Ли Эванс, Вики Льюис, Мори Чайкин, Эрик Кристмас, Майкл Джетер, Дебра Кристофферсон, Camilla Søeberg, Йен Эберкромби, Аннабелль Гурвич
Бюджет: $38 000 000
Сборы в мире: $122 417 389
Описание: Братья Ларс и Эрни Шмунц не придают особого значения унаследованному ими старому полуразрушенному особняку до тех пор, пока они не узнают, что их ветхая недвижимость стоит миллионы. Но есть одна проблема.
Чтобы продать дом, братья должны избавиться от его единственного и упрямого обитателя - маленькой, но очень цепкой мыши. То, что поначалу кажется детской игрой, становится настоящей грандиозной битвой.
Изображение
Раздача группы: Изображение
Качество: HDTVRip
Формат: Matroska
Видео: AVC; 1280x720 (16:9); 5906 Kbps; 23,976 fps; 0,267 bit/pixel
Аудио №1: Russian; AC3; 384 Kbps; CBR; 6 ch
Аудио №2: English; AC3; 384 Kbps; CBR; 6 ch

MediaInfo
Общее
Уникальный идентификатор : 202675012589658641152253666276570479637 (0x9879C99E5AC26E3D88294722DE7ABC15)
Полное имя : Z:\WWW\TR-Downloads\Mouse.Hunt.720p[R.G.Daredevil].mkv
Формат : Matroska
Версия формата : Version 1
Размер файла : 4,64 Гбайт
Продолжительность : 1 ч. 37 м.
Общий поток : 6810 Кбит/сек
Дата кодирования : UTC 2007-04-08 11:09:17
Программа кодирования : mkvmerge v2.0.2 ('You're My Flame') built on Feb 21 2007 23:40:55
Библиотека кодирования : libebml v0.7.7 + libmatroska v0.8.1

Видео
Идентификатор : 1
Формат : AVC
Формат/Информация : Advanced Video Codec
Профиль формата : High@L5.1
Параметр CABAC формата : Да
Параметр ReFrames формата : 6 кадров
Идентификатор кодека : V_MPEG4/ISO/AVC
Продолжительность : 1 ч. 37 м.
Битрейт : 6183 Кбит/сек
Ширина : 1280 пикселей
Высота : 720 пикселей
Соотношение сторон : 16:9
Частота кадров : 23,976 кадра/сек
Цветовое пространство : YUV
Субдискретизация насыщенности : 4:2:0
Битовая глубина : 8 бит
Тип развёртки : Прогрессивная
Бит/(Пиксели*Кадры) : 0.280
Размер потока : 4,02 Гбайт (87%)
Библиотека кодирования : x264 core 54 svn-635M
Настройки программы : cabac=1 / ref=3 / deblock=1:-2:-1 / analyse=0x3:0x133 / me=umh / subme=6 / brdo=0 / mixed_ref=0 / me_range=12 / chroma_me=1 / trellis=1 / 8x8dct=1 / cqm=0 / deadzone=21,11 / chroma_qp_offset=0 / threads=2 / nr=0 / decimate=1 / mbaff=0 / bframes=3 / b_pyramid=1 / b_adapt=1 / b_bias=0 / direct=3 / wpredb=1 / bime=0 / keyint=250 / keyint_min=25 / scenecut=40(pre) / rc=2pass / bitrate=6183 / ratetol=1.0 / rceq='blurCplx^(1-qComp)' / qcomp=0.60 / qpmin=10 / qpmax=51 / qpstep=4 / cplxblur=20.0 / qblur=0.5 / ip_ratio=1.40 / pb_ratio=1.30
Default : Да
Forced : Нет

Аудио #1
Идентификатор : 2
Формат : AC-3
Формат/Информация : Audio Coding 3
Расширение режима : CM (complete main)
Параметр Endianness формата : Big
Идентификатор кодека : A_AC3
Продолжительность : 1 ч. 37 м.
Вид битрейта : Постоянный
Битрейт : 384 Кбит/сек
Каналы : 6 каналов
Расположение каналов : Front: L C R, Side: L R, LFE
Частота : 48,0 КГц
Битовая глубина : 16 бит
Метод сжатия : С потерями
Размер потока : 268 Мбайт (6%)
Язык : Russian
Default : Да
Forced : Нет

Аудио #2
Идентификатор : 3
Формат : AC-3
Формат/Информация : Audio Coding 3
Расширение режима : CM (complete main)
Параметр Endianness формата : Big
Идентификатор кодека : A_AC3
Продолжительность : 1 ч. 37 м.
Вид битрейта : Постоянный
Битрейт : 384 Кбит/сек
Каналы : 6 каналов
Расположение каналов : Front: L C R, Side: L R, LFE
Частота : 48,0 КГц
Битовая глубина : 16 бит
Метод сжатия : С потерями
Размер потока : 268 Мбайт (6%)
Язык : English
Default : Нет
Forced : Нет
Свернуть
Скриншоты
Изображение
Изображение
Изображение
Изображение
Изображение
Свернуть
Не в сети
Профиль  
Начать новую темуОтветить на тему  [ 1 сообщение ] 
Вы не можете начинать темы
Вы не можете отвечать на сообщения
Вы не можете редактировать свои сообщения
Вы не можете удалять свои сообщения