Правила форума

  • В этом разделе создание новых тем Запрещено.
  • Для создания новых тем пользуйтесь Корневым разделом DVD и HD фильмы.
Начать новую темуОтветить на тему  [ Сообщений: 4 ] 
Торрент файл
Размер: 58.46 GB • Зарегистрирован: 4 года 3 месяца • Статус: Проверено
Скачан: 14 раз • Желающих скачать: 0 • Поблагодарили: 12 раз
 Раздают: 0  |  0 KB/s  ]   Качают: 1  |  0 KB/s  ] 
 Полного источника не было 2 года 5 месяцев 
Сообщения
 Добавлено: 2012-08-10 19:54
Top-releaser
Аватара пользователя
Стаж: 6 лет 7 месяцев
Сообщений: 2078
Спасибок: 3230
Лайков: 9
Изображение


Миссия: невыполнима / Mission: Impossible
Изображение

Миссия: невыполнима / Mission: Impossible


Год выпуска: 1996
Страна: США
Слоган: «Expect the Impossible»
Жанр: боевик, триллер, приключения
Продолжительность: 01:50:12
Перевод: Профессиональный (полное дублирование)
Режиссер: Брайан Де Пальма
Сценарий: Брюс Геллер, Дэвид Кепп, Роберт Таун, Стивен Зеллиан
Продюсер: Том Круз, Пол Хичкок, Пола Вагнер
Оператор: Стивен Х. Бёрум
Композитор: Дэнни Элфман, Лало Шифрин, Алан Сильвестри, Долорес О’Риордан
В ролях: Том Круз, Джон Войт, Эммануэль Беар, Генри Черни, Жан Рено, Винг Реймз, Кристин Скотт Томас, Ванесса Редгрейв, Ингеборга Дапкунайте, Эмилио Эстевез, Дейл Дай, Марчел Юреш
Бюджет: $80 000 000
Сборы в мире: $456 494 803
Описание: Агент ЦРУ Итан Хант оказался в положении подозреваемого в предательстве «крота», из-за которого погибли несколько членов его команды, включая руководителя группы Джима Фелпса. В живых осталась еще только коллега Ханта - жена Фелпса агент Клэр. Чтобы снять с себя обвинения в предательстве, Ханту надо найти настоящего «крота».
Изображение
Раздача группы: Изображение
Качество: BDRip, 1080p
Формат: Matroska
Видео: AVC; 1920x796 (2.40:1); 11867 Kbps; 23,976 fps; 0,324 bit/pixel
Аудио №1: Russian; AC3; 448 Kbps; CBR; 6 ch - Многоголосый, Позитив-Мультимедия
Аудио №2: English; DTS; 1509 Kbps; CBR; 6 ch; 24 bit
Аудио №3: Russian (DTS, 5.1 / 48 kHz / 1509 kbps / 24-bit) - Двухголосый, Гланц и Королева - отдельным файлом
Аудио №4: Russian (DTS, 5.1 / 48 kHz / 1509 kbps / 24-bit) - Авторский, Гаврилов - отдельным файлом
Аудио №5: Russian (DTS, 5.1 / 48 kHz / 1509 kbps / 24-bit) - Авторский, Визгунов - отдельным файлом
Аудио №6: Russian (AC3, 5.1, 384 kbps / 48 kHz) - Многоголосый, Киномания - отдельным файлом
Аудио №7: Russian (AC3, 5.1, 384 kbps / 48 kHz) - Авторский, Латышев - отдельным файлом
Аудио №8: Russian (AC3, 2.0, 224 kbps / 48 kHz) - Многоголосый, ОРТ - отдельным файлом
Аудио №9: Russian (AC3, 2.0, 192 kbps / 48 kHz) - Двухголосый, Премьер-Видео. мужской голосы - Игорь Тарадайкин - отдельным файлом
Аудио №10: Russian (DTS, 5.1, 768 kbps / 48 kHz) - Авторский, Живов - отдельным файлом
Аудио №11: Russian (AC3, 5.1, 384 kbps / 48 kHz) - Многоголосый, НТВ - отдельным файлом
Аудио №12: Russian (AC3, 2.0, 224 kbps / 48 kHz) - Многоголосый, СТС - отдельным файлом
Аудио №13: Ukrainian (AC3, 5.1, 448 kbps / 48 kHz) - Многоголосый - отдельным файлом
Субтитры: Russian, English

"Знаете ли Вы, что..."
  • В тоннеле под Ла-Маншем поезда встречных направлений ходят по изолированным тоннелям: герой с крыши поезда никак не мог видеть идущий навстречу состав.
Свернуть
MediaInfo
Общее
Уникальный идентификатор : 207252761992922005256933710676024165868 (0x9BEB6E16F6F413B9B36DC267868905EC)
Полное имя : Z:\WWW\TR-Downloads\Mission Impossible (Trilogy) BDRip 1080p[R.G.Daredevil]\Mission Impossible (1996) BDRip 1080p\Mission.Impossible.1996.1080p.BDRip.rus.eng.srt.mkv
Формат : Matroska
Версия формата : Version 2
Размер файла : 10,9 Гбайт
Продолжительность : 1 ч. 50 м.
Общий поток : 14,1 Мбит/сек
Дата кодирования : UTC 2011-12-20 17:25:02
Программа кодирования : mkvmerge v3.4.0 ('Rapunzel') сборка от May 15 2010 09:38:20
Библиотека кодирования : libebml v0.8.0 + libmatroska v0.9.0

Видео
Идентификатор : 1
Формат : AVC
Формат/Информация : Advanced Video Codec
Профиль формата : High@L4.1
Параметр CABAC формата : Да
Параметр ReFrames формата : 4 кадра
Идентификатор кодека : V_MPEG4/ISO/AVC
Продолжительность : 1 ч. 50 м.
Битрейт : 12,2 Мбит/сек
Ширина : 1920 пикселей
Высота : 796 пикселей
Соотношение сторон : 2,40:1
Частота кадров : 23,976 кадра/сек
Цветовое пространство : YUV
Субдискретизация насыщенности : 4:2:0
Битовая глубина : 8 бит
Тип развёртки : Прогрессивная
Бит/(Пиксели*Кадры) : 0.332
Размер потока : 9,14 Гбайт (84%)
Библиотека кодирования : x264 core 119 r2106 07efeb4
Настройки программы : cabac=1 / ref=4 / deblock=1:-3:-3 / analyse=0x3:0x113 / me=umh / subme=11 / psy=1 / psy_rd=1.00:0.00 / mixed_ref=1 / me_range=48 / chroma_me=1 / trellis=2 / 8x8dct=1 / cqm=0 / deadzone=21,11 / fast_pskip=0 / chroma_qp_offset=-2 / threads=6 / sliced_threads=0 / nr=0 / decimate=1 / interlaced=0 / bluray_compat=0 / constrained_intra=0 / bframes=11 / b_pyramid=2 / b_adapt=2 / b_bias=0 / direct=3 / weightb=1 / open_gop=0 / weightp=2 / keyint=250 / keyint_min=23 / scenecut=40 / intra_refresh=0 / rc_lookahead=60 / rc=2pass / mbtree=0 / bitrate=12155 / ratetol=1.0 / qcomp=0.60 / qpmin=10 / qpmax=69 / qpstep=4 / cplxblur=20.0 / qblur=0.5 / vbv_maxrate=50000 / vbv_bufsize=62500 / nal_hrd=none / ip_ratio=1.40 / pb_ratio=1.30 / aq=2:1.00
Default : Да
Forced : Нет

Аудио #1
Идентификатор : 2
Формат : AC-3
Формат/Информация : Audio Coding 3
Расширение режима : CM (complete main)
Параметр Endianness формата : Big
Идентификатор кодека : A_AC3
Продолжительность : 1 ч. 50 м.
Вид битрейта : Постоянный
Битрейт : 448 Кбит/сек
Каналы : 6 каналов
Расположение каналов : Front: L C R, Side: L R, LFE
Частота : 48,0 КГц
Битовая глубина : 16 бит
Метод сжатия : С потерями
Размер потока : 353 Мбайт (3%)
Заголовок : Позитив-Мультимедия, АС3 5.1, 448 kbps
Язык : Russian
Default : Да
Forced : Нет

Аудио #2
Идентификатор : 3
Формат : DTS
Формат/Информация : Digital Theater Systems
Идентификатор кодека : A_DTS
Продолжительность : 1 ч. 50 м.
Вид битрейта : Постоянный
Битрейт : 1510 Кбит/сек
Каналы : 6 каналов
Расположение каналов : Front: L C R, Side: L R, LFE
Частота : 48,0 КГц
Битовая глубина : 24 бит
Метод сжатия : С потерями
Размер потока : 1,16 Гбайт (11%)
Язык : English
Default : Нет
Forced : Нет

Текст #1
Идентификатор : 4
Формат : UTF-8
Идентификатор кодека : S_TEXT/UTF8
Идентификатор кодека/Информация : UTF-8 Plain Text
Язык : Russian
Default : Нет
Forced : Нет

Текст #2
Идентификатор : 5
Формат : UTF-8
Идентификатор кодека : S_TEXT/UTF8
Идентификатор кодека/Информация : UTF-8 Plain Text
Язык : English
Default : Нет
Forced : Нет
Свернуть
Скриншоты
Изображение
Изображение
Изображение
Изображение
Изображение
Свернуть
Свернуть

Миссия: невыполнима 2 / Mission: Impossible II
Изображение

Миссия: невыполнима 2 / Mission: Impossible II


Год выпуска: 2000
Страна: США, Германия
Слоган: «Expect the impossible again»
Жанр: боевик, триллер, приключения
Продолжительность: 02:03:35
Перевод: Профессиональный (полное дублирование)
Режиссер: Джон Ву
Сценарий: Брюс Геллер, Роберт Таун, Рональд Д. Мур, Брэннон Брага
Продюсер: Том Круз, Пола Вагнер, Теренс Чанг, Майкл Доуен, Пол Хичкок
Оператор: Джефри Л. Кимбалл
Композитор: Ханс Циммер
В ролях: Том Круз, Дюгрэй Скотт, Тэнди Ньютон, Ричард Роксбург, Винг Реймз, Джон Полсон, Брендан Глисон, Раде Шербеджия, Уильям Мапотер, Энтони Хопкинс, Доминик Пурселл, Мэттью Уилкинсон
Бюджет: $125 000 000
Сборы в мире: $545 902 562
Описание: Если мир внезапно оказывается перед лицом ужасной катастрофы, есть лишь один человек, который может исправить это ужасное положение. Его имя Итан Хант, он прирожденный специалист по разрешению самых неразрешимых ситуаций.
Теперь у Итана - новый, строгий начальник, новая очаровательная возлюбленная, новый коварный противник и новое задание, которое простому смертному просто не по плечу. Но Итан Хант не был бы Итаном Хантом, если бы не смог с блеском выполнить очередную невыполнимую миссию: справиться с кровожадными террористами и спасти планету от ужасного, смертельного вируса!
Изображение
Раздача группы: Изображение
Качество: BDRip, 1080p
Формат: Matroska
Видео: AVC; 1920x794 (2.40:1); 13432 Kbps; 23,976 fps; 0,367 bit/pixel
Аудио №1: Russian; AC3; 448 Kbps; CBR; 6 ch - Многоголосый, Позитив-Мультимедия
Аудио №2: English; DTS; 1509 Kbps; CBR; 6 ch; 24 bit
Аудио №3: Russian (DTS, 5.1 / 48 kHz / 1509 kbps / 24-bit) - Двухголосый, Гланц и Королева - отдельным файлом
Аудио №4: Russian (DTS, 5.1 / 48 kHz / 1509 kbps / 24-bit) - Авторский, Гаврилов - отдельным файлом
Аудио №5: Russian (DTS, 5.1 / 48 kHz / 1509 kbps / 24-bit) - Авторский, Визгунов - отдельным файлом
Аудио №5: Russian (AC3, 5.1, 448 kbps / 48 kHz) - Авторский, Латышев - отдельным файлом
Аудио №6: Russian (AC3, 2.0, 192 kbps / 48 kHz) - Многоголосый, Премьер-Видео - отдельным файлом
Аудио №7: Russian (AC3, 2.0, 224 kbps / 48 kHz) - Многоголосый, СТС - отдельным файлом
Аудио №8: Russian (AC3, 5.1, 448 kbps / 48 kHz) - Многоголосый, НТВ - отдельным файлом
Аудио №9: Russian (AC3, 2.0, 224 kbps / 48 kHz) - Многоголосый, ОРТ - отдельным файлом
Аудио №10: Ukrainian (AC3, 5.1, 448 kbps / 48 kHz) - Многоголосый - отдельным файлом
Субтитры: Russian, English

"Знаете ли Вы, что..."
  • Персонаж Энтони Хопкинса стал единственным, кто использует фразу «миссия: невыполнима».
Свернуть
MediaInfo
Общее
Уникальный идентификатор : 186483167344011950436421179921527267242 (0x8C4B5A033110927785110484E038DFAA)
Полное имя : Z:\WWW\TR-Downloads\Mission Impossible (Trilogy) BDRip 1080p[R.G.Daredevil]\Mission Impossible 2 (2000) BDRip 1080p\Mission.Impossible.2.2000.1080p.BDRip.rus.eng.srt.mkv
Формат : Matroska
Версия формата : Version 2
Размер файла : 13,6 Гбайт
Продолжительность : 2 ч. 3 м.
Общий поток : 15,7 Мбит/сек
Дата кодирования : UTC 2011-12-20 17:56:38
Программа кодирования : mkvmerge v3.4.0 ('Rapunzel') сборка от May 15 2010 09:38:20
Библиотека кодирования : libebml v0.8.0 + libmatroska v0.9.0

Видео
Идентификатор : 1
Формат : AVC
Формат/Информация : Advanced Video Codec
Профиль формата : High@L4.1
Параметр CABAC формата : Да
Параметр ReFrames формата : 4 кадра
Идентификатор кодека : V_MPEG4/ISO/AVC
Продолжительность : 2 ч. 3 м.
Битрейт : 13,8 Мбит/сек
Ширина : 1920 пикселей
Высота : 794 пикселя
Соотношение сторон : 2,40:1
Частота кадров : 23,976 кадра/сек
Цветовое пространство : YUV
Субдискретизация насыщенности : 4:2:0
Битовая глубина : 8 бит
Тип развёртки : Прогрессивная
Бит/(Пиксели*Кадры) : 0.376
Размер потока : 11,6 Гбайт (86%)
Библиотека кодирования : x264 core 119 r2106 07efeb4
Настройки программы : cabac=1 / ref=4 / deblock=1:-3:-3 / analyse=0x3:0x113 / me=umh / subme=11 / psy=1 / psy_rd=1.00:0.00 / mixed_ref=1 / me_range=48 / chroma_me=1 / trellis=2 / 8x8dct=1 / cqm=0 / deadzone=21,11 / fast_pskip=0 / chroma_qp_offset=-2 / threads=6 / sliced_threads=0 / nr=0 / decimate=1 / interlaced=0 / bluray_compat=0 / constrained_intra=0 / bframes=11 / b_pyramid=2 / b_adapt=2 / b_bias=0 / direct=3 / weightb=1 / open_gop=0 / weightp=2 / keyint=250 / keyint_min=23 / scenecut=40 / intra_refresh=0 / rc_lookahead=60 / rc=2pass / mbtree=0 / bitrate=13755 / ratetol=1.0 / qcomp=0.60 / qpmin=10 / qpmax=69 / qpstep=4 / cplxblur=20.0 / qblur=0.5 / vbv_maxrate=50000 / vbv_bufsize=62500 / nal_hrd=none / ip_ratio=1.40 / pb_ratio=1.30 / aq=2:1.00
Default : Да
Forced : Нет

Аудио #1
Идентификатор : 2
Формат : AC-3
Формат/Информация : Audio Coding 3
Расширение режима : CM (complete main)
Параметр Endianness формата : Big
Идентификатор кодека : A_AC3
Продолжительность : 2 ч. 3 м.
Вид битрейта : Постоянный
Битрейт : 448 Кбит/сек
Каналы : 6 каналов
Расположение каналов : Front: L C R, Side: L R, LFE
Частота : 48,0 КГц
Битовая глубина : 16 бит
Метод сжатия : С потерями
Размер потока : 396 Мбайт (3%)
Заголовок : Позитив-Мультимедия, AC3 5.1, 448 kbps
Язык : Russian
Default : Да
Forced : Нет

Аудио #2
Идентификатор : 3
Формат : DTS
Формат/Информация : Digital Theater Systems
Идентификатор кодека : A_DTS
Продолжительность : 2 ч. 3 м.
Вид битрейта : Постоянный
Битрейт : 1510 Кбит/сек
Каналы : 6 каналов
Расположение каналов : Front: L C R, Side: L R, LFE
Частота : 48,0 КГц
Битовая глубина : 24 бит
Метод сжатия : С потерями
Размер потока : 1,30 Гбайт (10%)
Язык : English
Default : Нет
Forced : Нет

Текст #1
Идентификатор : 4
Формат : UTF-8
Идентификатор кодека : S_TEXT/UTF8
Идентификатор кодека/Информация : UTF-8 Plain Text
Заголовок : Позитив
Язык : Russian
Default : Нет
Forced : Нет

Текст #2
Идентификатор : 5
Формат : UTF-8
Идентификатор кодека : S_TEXT/UTF8
Идентификатор кодека/Информация : UTF-8 Plain Text
Язык : Russian
Default : Нет
Forced : Нет

Текст #3
Идентификатор : 6
Формат : UTF-8
Идентификатор кодека : S_TEXT/UTF8
Идентификатор кодека/Информация : UTF-8 Plain Text
Язык : Russian
Default : Нет
Forced : Нет

Текст #4
Идентификатор : 7
Формат : UTF-8
Идентификатор кодека : S_TEXT/UTF8
Идентификатор кодека/Информация : UTF-8 Plain Text
Язык : Russian
Default : Нет
Forced : Нет

Текст #5
Идентификатор : 8
Формат : UTF-8
Идентификатор кодека : S_TEXT/UTF8
Идентификатор кодека/Информация : UTF-8 Plain Text
Язык : English
Default : Нет
Forced : Нет
Свернуть
Скриншоты
Изображение
Изображение
Изображение
Изображение
Изображение
Свернуть
Свернуть

Миссия: невыполнима 3 / Mission: Impossible III
Изображение

Миссия: невыполнима 3 / Mission: Impossible III


Год выпуска: 2006
Страна: США, Германия, Китай
Жанр: боевик, триллер, приключения
Продолжительность: 02:05:24
Перевод: Профессиональный (полное дублирование)
Режиссер: Джей Джей Абрамс
Сценарий: Алекс Куртцман, Роберто Орси, Джей Джей Абрамс, Брюс Геллер
Продюсер: Том Круз, Пола Вагнер, Артур Андерсон, Гуйчун Ванг, Ян Бутин
Оператор: Дэниэл Майндел
Композитор: Майкл Джаккино
В ролях: Том Круз, Филип Сеймур Хоффман, Мишель Монахэн, Билли Крудап, Винг Реймз, Джонатан Риз Майерс, Мэгги Кью, Кери Рассел, Лоренс Фишбёрн, Саймон Пегг, Эдди Марсан, Бахар Сумех
Бюджет: $150 000 000
Сборы в мире: $397 850 012
Описание: Суперагент Итан Хант решил расстаться с оперативной работой и заняться подготовкой курсантов. Он даже решил жениться на привлекательной, ни о чём не ведающей Джулии. Руководство ЦРУ просит его принять участие в последней операции: спасении его бывшей ученицы Линдси Феррис из лап торговца оружием Оуэна Дэвиана. Мог ли Итан предположить, что за этим заданием последует целая череда смертельно опасных миссий в Ватикане, Нью-Йорке и Шанхае?
Изображение
Раздача группы: Изображение
Качество: BDRip, 1080p
Формат: Matroska
Видео: AVC; 1920x818 (2.35:1); 16740 Kbps; 23,976 fps; 0,445 bit/pixel
Аудио №1: Russian; AC3; 640 Kbps; CBR; 6 ch - Дубляж
Аудио №2: English; DTS; 1509 Kbps; CBR; 6 ch; 24 bit
Аудио №3: Russian (DTS, 5.1 / 48 kHz / 1509 kbps / 24-bit) - Двухголосый, Гланц и Королева - отдельным файлом
Аудио №4: Russian (DTS, 5.1 / 48 kHz / 1509 kbps / 24-bit) - Авторский, Гаврилов - отдельным файлом
Аудио №5: Russian (DTS, 5.1 / 48 kHz / 1509 kbps / 24-bit) - Многоголосый, Супербит - отдельным файлом
Аудио №6: Russian (AC3, 5.1, 448 kbps / 48 kHz) - Многоголосый, Позитив-Мультимедиа - отдельным файлом
Аудио №7: Russian (AC3, 5.1, 448 kbps / 48 kHz) - Многоголосый, Киномания - отдельным файлом
Аудио №8: Russian (DTS, 5.1, 755 kbps / 48 kHz) - Авторский, Королев - отдельным файлом
Аудио №9: Ukrainian (AC3, 5.1, 448 kbps / 48 kHz) - Многоголосый - отдельным файлом
Субтитры: Russian, English

"Знаете ли Вы, что..."
  • Павильонные съемки проходили на студии «Paramount». В предыдущие 18 лет эти павильоны использовались для съемок эпизодов сериала «Star Trek».
Свернуть
MediaInfo
Общее
Уникальный идентификатор : 241236677812508614259765959880406776024 (0xB57C7E8081C8417D9E101D48E1C4B8D8)
Полное имя : Z:\WWW\TR-Downloads\Mission Impossible (Trilogy) BDRip 1080p[R.G.Daredevil]\Mission Impossible 3 (2006) BDRip 1080p\Mission.Impossible.3.2006.1080p.BDRip.rus.eng.srt.mkv
Формат : Matroska
Версия формата : Version 2
Размер файла : 16,9 Гбайт
Продолжительность : 2 ч. 5 м.
Общий поток : 19,3 Мбит/сек
Дата кодирования : UTC 2011-12-20 18:25:11
Программа кодирования : mkvmerge v3.4.0 ('Rapunzel') сборка от May 15 2010 09:38:20
Библиотека кодирования : libebml v0.8.0 + libmatroska v0.9.0

Видео
Идентификатор : 1
Формат : AVC
Формат/Информация : Advanced Video Codec
Профиль формата : High@L4.1
Параметр CABAC формата : Да
Параметр ReFrames формата : 4 кадра
Идентификатор кодека : V_MPEG4/ISO/AVC
Продолжительность : 2 ч. 5 м.
Битрейт : 17,1 Мбит/сек
Ширина : 1920 пикселей
Высота : 818 пикселей
Соотношение сторон : 2,35:1
Частота кадров : 23,976 кадра/сек
Цветовое пространство : YUV
Субдискретизация насыщенности : 4:2:0
Битовая глубина : 8 бит
Тип развёртки : Прогрессивная
Бит/(Пиксели*Кадры) : 0.455
Размер потока : 14,7 Гбайт (87%)
Библиотека кодирования : x264 core 119 r2106 07efeb4
Настройки программы : cabac=1 / ref=4 / deblock=1:-3:-3 / analyse=0x3:0x113 / me=umh / subme=11 / psy=1 / psy_rd=1.00:0.20 / mixed_ref=1 / me_range=48 / chroma_me=1 / trellis=2 / 8x8dct=1 / cqm=0 / deadzone=21,11 / fast_pskip=0 / chroma_qp_offset=-3 / threads=6 / sliced_threads=0 / nr=0 / decimate=1 / interlaced=0 / bluray_compat=0 / constrained_intra=0 / bframes=11 / b_pyramid=2 / b_adapt=2 / b_bias=0 / direct=3 / weightb=1 / open_gop=0 / weightp=2 / keyint=250 / keyint_min=23 / scenecut=40 / intra_refresh=0 / rc_lookahead=60 / rc=2pass / mbtree=0 / bitrate=17122 / ratetol=1.0 / qcomp=0.60 / qpmin=10 / qpmax=69 / qpstep=4 / cplxblur=20.0 / qblur=0.5 / vbv_maxrate=50000 / vbv_bufsize=62500 / nal_hrd=none / ip_ratio=1.40 / pb_ratio=1.30 / aq=2:0.80
Default : Да
Forced : Нет

Аудио #1
Идентификатор : 2
Формат : AC-3
Формат/Информация : Audio Coding 3
Расширение режима : CM (complete main)
Параметр Endianness формата : Big
Идентификатор кодека : A_AC3
Продолжительность : 2 ч. 5 м.
Вид битрейта : Постоянный
Битрейт : 640 Кбит/сек
Каналы : 6 каналов
Расположение каналов : Front: L C R, Side: L R, LFE
Частота : 48,0 КГц
Битовая глубина : 16 бит
Метод сжатия : С потерями
Размер потока : 574 Мбайт (3%)
Заголовок : Дубляж, AC3 5.1, 640 kbps
Язык : Russian
Default : Да
Forced : Нет

Аудио #2
Идентификатор : 3
Формат : DTS
Формат/Информация : Digital Theater Systems
Идентификатор кодека : A_DTS
Продолжительность : 2 ч. 5 м.
Вид битрейта : Постоянный
Битрейт : 1510 Кбит/сек
Каналы : 6 каналов
Расположение каналов : Front: L C R, Side: L R, LFE
Частота : 48,0 КГц
Битовая глубина : 24 бит
Метод сжатия : С потерями
Размер потока : 1,32 Гбайт (8%)
Язык : English
Default : Нет
Forced : Нет

Текст #1
Идентификатор : 4
Формат : UTF-8
Идентификатор кодека : S_TEXT/UTF8
Идентификатор кодека/Информация : UTF-8 Plain Text
Язык : Russian
Default : Нет
Forced : Нет

Текст #2
Идентификатор : 5
Формат : UTF-8
Идентификатор кодека : S_TEXT/UTF8
Идентификатор кодека/Информация : UTF-8 Plain Text
Язык : Russian
Default : Нет
Forced : Нет

Текст #3
Идентификатор : 6
Формат : UTF-8
Идентификатор кодека : S_TEXT/UTF8
Идентификатор кодека/Информация : UTF-8 Plain Text
Язык : English
Default : Нет
Forced : Нет
Свернуть
Скриншоты
Изображение
Изображение
Изображение
Изображение
Изображение
Свернуть
Свернуть
Не в сети
Профиль  
 Добавлено: 2012-08-13 01:17 (спустя 2 дня 5 часов)
Стаж: 6 лет 9 месяцев
Сообщений: 13
дайте скорости!!! Плиз!
Не в сети
Профиль  
 Добавлено: 2012-08-13 09:45 (спустя 8 часов)
Стаж: 7 лет 9 месяцев
Сообщений: 35
эх жаль что без последней
Не в сети
Профиль  
 Добавлено: 2012-08-13 10:38 (спустя 53 минуты)
Top-releaser
Аватара пользователя
Стаж: 6 лет 7 месяцев
Сообщений: 2078
Спасибок: 3230
Лайков: 9
Оккама
Последняя есть отдельно. Зачем повторять :ne_znayu:
Не в сети
Профиль  
Начать новую темуОтветить на тему  [ Сообщений: 4 ] 
Вы не можете начинать темы
Вы не можете отвечать на сообщения
Вы не можете редактировать свои сообщения
Вы не можете удалять свои сообщения