Правила форума

  • В этом разделе создание новых тем Запрещено.
  • Для создания новых тем пользуйтесь Корневым разделом DVD и HD фильмы.
Начать новую темуОтветить на тему  [ 1 сообщение ] 
Торрент файл
Размер: 2.72 GB • Зарегистрирован: 2 года 1 месяц • Статус: T Временный релиз
Скачан: 22 раза • Желающих скачать: 0 • Поблагодарили: 9 раз
 Раздают: 0  |  0 KB/s  ]   Качают: 0  |  0 KB/s  ] 
 Полного источника не было 5 месяцев 15 дней 
Сообщения
 Добавлено: 2014-10-21 10:00
RG-ELEKTRO
Аватара пользователя
Стаж: 2 года 3 месяца
Сообщений: 7928
Спасибок: 53801
Лайков: 3304
Могильный Хэллоуин / Grave Halloween



Изображение

Выпущено: Канада / Haunted Pictures
Год выхода: 2013
Жанр: Ужасы
Продолжительность: 01:29:28
Перевод: Профессиональное (многоголосое) [Лицензия (iTunes Russia)]

Режиссер: Стивен Р. Монро

В ролях: Кейтлин Вонг, Касси Томсон, Деян Лойола, Грэхэм Уордл, Джесси Вилер, Том Стивенс, Джеффри Баллард, Хиро Канагава, Кеван Охтци

О фильме:
Группа подростков отправилась в Лес Смерти. Вскоре им приходится пожалеть о том, что они пришли в это место…

Семпл Изображение

Формат: MKV
Качество: WEB-DL 720p
Видео: MPEG-4 AVC, 3879 Кбит/с, 1280x720
Звук: Аудио: Русский (AC3, 6 ch, 384 Кбит/с)
Субтитры: Английские

"Media Info:"

Общее
Уникальный идентификатор : 209525451807583465291886987495420626141 (0x9DA1225946BEC53F89902D77DF0E84DD)
Полное имя : F:Раздача HDGrave.Halloween.2013.WEB.DL.720p.mkv
Формат : Matroska
Версия формата : Version 4 / Version 2
Размер файла : 2,72 Гбайт
Продолжительность : 1 ч. 29 м.
Общий поток : 4349 Кбит/сек
Название фильма : Release Group CINEMANIA
Дата кодирования : UTC 2014-10-20 08:54:06
Программа кодирования : mkvmerge v7.2.0 ('On Every Street') 64bit built on Sep 13 2014 15:52:10
Библиотека кодирования : libebml v1.3.0 + libmatroska v1.4.1

Видео
Идентификатор : 1
Формат : AVC
Формат/Информация : Advanced Video Codec
Профиль формата : High@L3.1
Параметр CABAC формата : Нет
Параметр ReFrames формата : 2 кадра
Идентификатор кодека : V_MPEG4/ISO/AVC
Продолжительность : 1 ч. 29 м.
Битрейт : 3879 Кбит/сек
Ширина : 1280 пикселей
Высота : 720 пикселей
Соотношение сторон : 16:9
Режим частоты кадров : Постоянный
Частота кадров : 23,976 кадра/сек
Цветовое пространство : YUV
Субдискретизация насыщенности : 4:2:0
Битовая глубина : 8 бит
Тип развёртки : Прогрессивная
Бит/(Пиксели*Кадры) : 0.176
Размер потока : 2,42 Гбайт (89%)
Заголовок : Release Group CINEMANIA
Язык : English
Default : Да
Forced : Нет
Основные цвета : BT.709
Характеристики трансфера : BT.709
Коэффициенты матрицы : BT.709

Аудио
Идентификатор : 2
Формат : AC-3
Формат/Информация : Audio Coding 3
Расширение режима : CM (complete main)
Параметр Endianness формата : Big
Идентификатор кодека : A_AC3
Продолжительность : 1 ч. 29 м.
Вид битрейта : Постоянный
Битрейт : 384 Кбит/сек
Каналы : 6 каналов
Расположение каналов : Front: L C R, Side: L R, LFE
Частота : 48,0 КГц
Битовая глубина : 16 бит
Метод сжатия : С потерями
Размер потока : 246 Мбайт (9%)
Заголовок : Лицензия
Язык : Russian
Default : Да
Forced : Да

Текст #1
Идентификатор : 3
Формат : UTF-8
Идентификатор кодека : S_TEXT/UTF8
Идентификатор кодека/Информация : UTF-8 Plain Text
Язык : Russian
Default : Да
Forced : Да

Текст #2
Идентификатор : 4
Формат : UTF-8
Идентификатор кодека : S_TEXT/UTF8
Идентификатор кодека/Информация : UTF-8 Plain Text
Язык : English
Default : Нет
Forced : Нет

Меню
00:00:00.000 : en:1
00:05:58.000 : en:2
00:10:02.000 : en:3
00:13:31.000 : en:4
00:19:07.000 : en:5
00:23:32.000 : en:6
00:30:32.000 : en:7
00:36:28.000 : en:8
00:41:27.000 : en:9
00:45:52.000 : en:10
00:52:02.000 : en:11
00:59:28.000 : en:12
01:06:17.000 : en:13
01:12:04.000 : en:14
01:18:01.000 : en:15
01:23:52.000 : en:16

Свернуть
"Скриншоты"
Изображение
Изображение
Изображение


Свернуть

_________________
Не ищите меня в "ВКонтакте", в "Одноклассниках" меня нет - я на трекерах сижу!
Не в сети
Профиль  
Начать новую темуОтветить на тему  [ 1 сообщение ] 
Вы не можете начинать темы
Вы не можете отвечать на сообщения
Вы не можете редактировать свои сообщения
Вы не можете удалять свои сообщения