Правила форума

  • В этом разделе создание новых тем Запрещено.
  • Для создания новых тем пользуйтесь Корневым разделом DVD и HD фильмы.
Начать новую темуОтветить на тему  [ Сообщений: 12 ] 
Торрент файл
Размер: 7.01 GB • Зарегистрирован: 5 лет 5 месяцев • Статус: T Временный релиз
Скачан: 232 раза • Желающих скачать: 0 • Поблагодарили: 32 раза
 Раздают: 0  |  0 KB/s  ]   Качают: 0  |  0 KB/s  ] 
 Полного источника не было 1 год 8 месяцев 
Сообщения
 Добавлено: 2011-06-14 21:28
Модератор
Аватара пользователя
Стаж: 8 лет 1 месяц
Сообщений: 1991
Спасибок: 129863
Лайков: 20
Могучий Тор / Almighty Thor


«The legend is born»



Изображение
Год выпуска: 2011
Страна: Изображение США
Жанр: фэнтези, приключения
Продолжительность:
01:32:09

Перевод: Любительский (двухголосый)

Режиссер: Кристофер Рэй
Сценарий: Erik Estenberg
Продюсер: Дэвид Майкл Лэтт, Пол Бейлс, Валери К. Гарси, Дэвид Римави
Оператор: Александр Йеллен
Композитор: Крис Риденауа

В ролях:
Ричард Греко (Loki), Патрисия Веласкес (Jarnsaxa), Коуди Дил (Thor), Кевин Нэш (Odin), Джесс Аллен (Baldir), Николь Фокс (Redhead Norn), Лесли Фишер (Blonde Norn), Charlie Glackin (Hundig), Chris Ivan Cevic (Himdall), Roddy Schaef (Hrathgar), Джералд Уэбб (Street Punk), Кристен Керр (Herja)

Описание: Демонический бог Локи разрушил Валгаллу и украл Молот Непобедимости. Только молодой Тор может спасти Землю от Апокалипсиса.


Изображение: 1.315 (236)
Изображение: 2.30 (566)


Доп. Информация

Мировая премьера: 7 мая 2011

Свернуть


Качество: BDRip 1080p

Формат: Matroska
Видео: MPEG-4 AVC, 9200 Кбит/с, 1920x816, 23.976 кадр/с
Аудио: Pусский (AC3, 2 ch, 192 Кбит/с), английский (DTS, 6 ch, 1536 Кбит/с)
Изображение


BDInfo

Общее
Полное имя : Moguchij.Tor.2011.x264.BDRip.1080p.mkv
Формат : Matroska
Размер файла : 7,01 Гбайт
Продолжительность : 1 ч. 32 м.
Общий поток : 10,9 Мбит/сек
Дата кодирования : UTC 2011-06-14 15:47:23
Программа кодирования : mkvmerge v4.8.0 ('I Got The...') сборка от May 24 2011 03:12:58
Библиотека кодирования : libebml v1.2.0 + libmatroska v1.1.0

Видео
Идентификатор : 1
Формат : AVC
Формат/Информация : Advanced Video Codec
Профиль формата : High@L4.1
Параметр CABAC формата : Да
Параметр ReFrames формата : 5 кадров
Режим смешивания : Header stripping
Идентификатор кодека : V_MPEG4/ISO/AVC
Продолжительность : 1 ч. 32 м.
Битрейт : 9200 Кбит/сек
Ширина : 1920 пикс.
Высота : 816 пикс.
Соотношение сторон : 2,35:1
Частота кадров : 23,976 кадр/сек
Цветовое пространство : YUV
Подвыборка цветности : 4:2:0
Битовая глубина : 8 бит
Тип развёртки : Прогрессивная
Бит/(Пиксели*Кадры) : 0.245
Размер потока : 5,78 Гбайт (82%)
Библиотека кодирования : x264 core 115 r1995 c1e60b9
Настройки программы : cabac=1 / ref=5 / deblock=1:-3:-3 / analyse=0x3:0x133 / me=umh / subme=10 / psy=1 / psy_rd=1.00:0.10 / mixed_ref=1 / me_range=32 / chroma_me=1 / trellis=2 / 8x8dct=1 / cqm=0 / deadzone=21,11 / fast_pskip=0 / chroma_qp_offset=-3 / threads=9 / sliced_threads=0 / nr=0 / decimate=0 / interlaced=0 / bluray_compat=0 / constrained_intra=0 / bframes=9 / b_pyramid=2 / b_adapt=2 / b_bias=0 / direct=3 / weightb=1 / open_gop=0 / weightp=2 / keyint=250 / keyint_min=23 / scenecut=40 / intra_refresh=0 / rc_lookahead=40 / rc=2pass / mbtree=0 / bitrate=9200 / ratetol=1.0 / qcomp=0.60 / qpmin=0 / qpmax=69 / qpstep=4 / cplxblur=20.0 / qblur=0.5 / vbv_maxrate=50000 / vbv_bufsize=62500 / nal_hrd=none / ip_ratio=1.40 / pb_ratio=1.30 / aq=1:0.80

Аудио #1
Идентификатор : 2
Формат : AC-3
Формат/Информация : Audio Coding 3
Расширение режима : CM (complete main)
Режим смешивания : Header stripping
Идентификатор кодека : A_AC3
Продолжительность : 1 ч. 32 м.
Вид битрейта : Постоянный
Битрейт : 192 Кбит/сек
Каналы : 2 канала
Расположение каналов : Front: L R
Частота : 48,0 КГц
Битовая глубина : 16 бит
Метод сжатия : С потерями
Размер потока : 127 Мбайт (2%)
Язык : Russian

Аудио #2
Идентификатор : 3
Формат : DTS
Формат/Информация : Digital Theater Systems
Режим смешивания : Header stripping
Идентификатор кодека : A_DTS
Продолжительность : 1 ч. 32 м.
Вид битрейта : Постоянный
Битрейт : 1510 Кбит/сек
Каналы : 6 каналов
Расположение каналов : Front: L C R, Side: L R, LFE
Частота : 48,0 КГц
Битовая глубина : 24 бит
Метод сжатия : С потерями
Размер потока : 995 Мбайт (14%)
Язык : English
Свернуть
Скриншоты

Изображение
Изображение
Изображение
Свернуть

_________________
Себе ты можешь не качать, но раздавать другим обязан!
Не в сети
Профиль  
 Добавлено: 2011-06-17 20:39 (спустя 2 дня 23 часа)
Аватара пользователя
Стаж: 7 лет 7 месяцев
Возраст: 36
Сообщений: 18
спс , хорошее кино :co_ol:
Не в сети
Профиль  
 Добавлено: 2011-06-18 10:03 (спустя 13 часов)
Стаж: 8 лет 2 месяца
Сообщений: 4
Спасибок: 6
А когда DVD9 будет?
Не в сети
Профиль  
 Добавлено: 2011-06-18 14:57 (спустя 4 часа)
Аватара пользователя
Стаж: 9 лет 1 месяц
Сообщений: 98
Спасибок: 262
Шота это не тот Тор...
Не в сети
Профиль  
 Добавлено: 2011-06-22 17:01 (спустя 4 дня)
Стаж: 6 лет 3 месяца
Сообщений: 4
о да совсем не тот Тор
:sh_ok: а я скачал :ps_ih:
Не в сети
Профиль  
 Добавлено: 2011-06-27 17:00 (спустя 4 дня)
Аватара пользователя
Стаж: 7 лет 3 месяца
Сообщений: 46
Спасибок: 157
Лайков: 1
фильм на один раз, и то...но автору респект)
Не в сети
Профиль  
 Добавлено: 2011-07-05 10:37 (спустя 7 дней)
Аватара пользователя
Стаж: 7 лет 9 месяцев
Сообщений: 13
редкосная хрень
Не в сети
Профиль  
 Добавлено: 2011-07-17 22:58 (спустя 12 дней)
Аватара пользователя
Стаж: 8 лет 5 месяцев
Сообщений: 46
Спасибок: 7
стоп, а есть еще другой тор?
Не в сети
Профиль  
 Добавлено: 2011-07-17 23:24 (спустя 25 минут)
Модератор
Аватара пользователя
Стаж: 8 лет 1 месяц
Возраст: 20
Сообщений: 32130
Спасибок: 98565
Лайков: 80

haruki:

стоп, а есть еще другой тор?
Да.
Не в сети
Профиль  
 Добавлено: 2011-07-24 05:58 (спустя 6 дней)
Аватара пользователя
Стаж: 6 лет 7 месяцев
Возраст: 28
Сообщений: 33
Жесть, это старье! Не 2011! И фильм такое УГ что просто слов нет! Ааншпраи! Зачем обманывать людей! Удалите немедленно!! ;wont_a_ban:
Не в сети
Профиль  
 Добавлено: 2011-08-09 21:22 (спустя 16 дней)
Аватара пользователя
Стаж: 8 лет 2 месяца
Возраст: 31
Сообщений: 46
Спасибок: 96
как файл отрыть не пойму он iso?
Не в сети
Профиль  
 Добавлено: 2011-10-04 22:08 (спустя 1 месяц 26 дней)
Стаж: 7 лет 1 месяц
Сообщений: 31
Хрень несусветная, пародия на фильм Тор :-D
Не в сети
Профиль  
Начать новую темуОтветить на тему  [ Сообщений: 12 ] 
Вы не можете начинать темы
Вы не можете отвечать на сообщения
Вы не можете редактировать свои сообщения
Вы не можете удалять свои сообщения