Правила форума

  • В этом разделе создание новых тем Запрещено.
  • Для создания новых тем пользуйтесь Корневым разделом DVD и HD фильмы.
Начать новую темуОтветить на тему  [ 1 сообщение ] 
Торрент файл
Размер: 9.2 GB • Зарегистрирован: 4 года 7 месяцев • Статус: Проверено
Скачан: 6 раз • Желающих скачать: 0 • Поблагодарили: 3 раза
 Раздают: 0  |  0 KB/s  ]   Качают: 0  |  0 KB/s  ] 
 Полного источника не было 3 года 2 месяца 
Сообщения
 Добавлено: 2012-05-01 16:53
Модератор релиз-группы
Аватара пользователя
Стаж: 9 лет 1 месяц
Возраст: 97
Сообщений: 11659
Спасибок: 6532
Лайков: 269
Молчи в тряпочку / Keeping Mum

Изображение



Год выпуска:
2005
Страна: Великобритания
Жанр: комедия, криминал
Продолжительность: 01:39:04
Перевод: Профессиональный (многоголосый, закадровый) Лицензия [R5]
Профессиональный (многоголосый, закадровый) Рен-ТВ (fatchoi)

Режиссер: Ниал Джонсон

В ролях: Роуэн Эткинсон, Кристин Скотт Томас, Мэгги Смит, Патрик Суэйзи, Тэмсин Эгертон, Тоби Паркес, Лиз Смит, Эмилия Фокс, Джеймс Бут, Патрик Монктон

Описание: Уолтер Гудфеллоу, приходской священник в маленькой английской деревушке Литтл Уэллоп, давно запустил свой брак с Глорией, и вообще так отдалился от своей семьи, что даже внимания не обращает ни на семнадцатилетнюю дочь, которая вовсю встречается с разными неподходящими ей парнями, ни на сына Пити, который боится ходить в школу, потому что его там обижают.
А лишенная любви мужа Глория начинает влюбляться в американца Лэнса, профессионального гольфиста, дающего ей частные уроки. Однако семейные проблемы потихоньку исчезают, когда в доме появляется новая домохозяйка Грэйс Хокинс, которая справляется с трудностями словно куда более старая, мрачная и таинственная Мэри Поппинс…
Изображение
Качество: BDRip 108p
Формат: mkv
Видео кодек: MPEG-4
Аудио кодек: AC3
Видео: AVC; 1920x816 (2.35:1); 10366 Kbps; 23,976 fps; 0,276 bpp
Аудио №1: Russian; AC3; 448 Kbps; CBR; 6 ch | Лицензия [R5]
Аудио №2: Russian; AC3; 192 Kbps; CBR; 2 ch | Рен-ТВ (fatchoi)
Аудио №3: English; DTS; 1509 Kbps; CBR; 6 ch; 16 bit
Субтитры: Russian, English
скриншоты
Изображение

Изображение

Изображение

Изображение
Свернуть
Mi
Format : Matroska
Format version : Version 2
File size : 9.20 GiB
Duration : 1h 43mn
Overall bit rate : 12.8 Mbps
Movie name : Keeping Mum (2005) - rutracker.org
Encoded date : UTC 2010-07-22 12:47:31
Writing application : mkvmerge v3.4.0 ('Rapunzel') сборка от May 15 2010 09:38:20
Writing library : libebml v0.8.0 + libmatroska v0.9.0

Video
ID : 1
Format : AVC
Format/Info : Advanced Video Codec
Format profile : High@L4.1
Format settings, CABAC : Yes
Format settings, ReFrames : 4 frames
Codec ID : V_MPEG4/ISO/AVC
Duration : 1h 43mn
Bit rate : 10.6 Mbps
Width : 1 920 pixels
Height : 816 pixels
Display aspect ratio : 2.35:1
Frame rate : 23.976 fps
Color space : YUV
Chroma subsampling : 4:2:0
Bit depth : 8 bits
Scan type : Progressive
Bits/(Pixel*Frame) : 0.283
Stream size : 7.47 GiB (81%)
Title : Keeping Mum (2005) PFa
Writing library : x264 core 102 r1666 d058f37
Encoding settings : cabac=1 / ref=4 / deblock=1:0:0 / analyse=0x3:0x133 / me=umh / subme=8 / psy=1 / psy_rd=1.00:0.00 / mixed_ref=1 / me_range=16 / chroma_me=1 / trellis=1 / 8x8dct=1 / cqm=0 / deadzone=21,11 / fast_pskip=0 / chroma_qp_offset=-2 / threads=3 / sliced_threads=0 / nr=0 / decimate=1 / interlaced=0 / constrained_intra=0 / bframes=3 / b_pyramid=2 / b_adapt=1 / b_bias=0 / direct=1 / weightb=1 / open_gop=0 / weightp=2 / keyint=250 / keyint_min=25 / scenecut=40 / intra_refresh=0 / rc_lookahead=40 / rc=2pass / mbtree=1 / bitrate=10621 / ratetol=1.0 / qcomp=0.60 / qpmin=10 / qpmax=51 / qpstep=4 / cplxblur=20.0 / qblur=0.5 / ip_ratio=1.40 / aq=1:1.00
Language : English
Default : No
Forced : No

Audio #1
ID : 2
Format : AC-3
Format/Info : Audio Coding 3
Mode extension : CM (complete main)
Codec ID : A_AC3
Duration : 1h 43mn
Bit rate mode : Constant
Bit rate : 448 Kbps
Channel(s) : 6 channels
Channel positions : Front: L C R, Side: L R, LFE
Sampling rate : 48.0 KHz
Bit depth : 16 bits
Compression mode : Lossy
Stream size : 330 MiB (4%)
Title : AC3 5.1 @ 448 Kbps
Language : Russian
Default : Yes
Forced : No

Audio #2
ID : 3
Format : AC-3
Format/Info : Audio Coding 3
Mode extension : CM (complete main)
Codec ID : A_AC3
Duration : 1h 43mn
Bit rate mode : Constant
Bit rate : 192 Kbps
Channel(s) : 2 channels
Channel positions : Front: L R
Sampling rate : 48.0 KHz
Bit depth : 16 bits
Compression mode : Lossy
Stream size : 142 MiB (2%)
Title : AC3 2.0 @ 192 Kbps
Language : Russian
Default : No
Forced : No

Audio #3
ID : 4
Format : DTS
Format/Info : Digital Theater Systems
Codec ID : A_DTS
Duration : 1h 43mn
Bit rate mode : Constant
Bit rate : 1 510 Kbps
Channel(s) : 6 channels
Channel positions : Front: L C R, Side: L R, LFE
Sampling rate : 48.0 KHz
Bit depth : 16 bits
Compression mode : Lossy
Stream size : 1.09 GiB (12%)
Title : DTS 5.1 @ 1536 Kbps
Language : English
Default : No
Forced : No

Text #1
ID : 5
Format : UTF-8
Codec ID : S_TEXT/UTF8
Codec ID/Info : UTF-8 Plain Text
Title : Russian
Language : Russian
Default : Yes
Forced : No

Text #2
ID : 6
Format : UTF-8
Codec ID : S_TEXT/UTF8
Codec ID/Info : UTF-8 Plain Text
Title : English
Language : English
Default : No
Forced : No

Свернуть
_________________
Изображение
Не в сети
Профиль  
Начать новую темуОтветить на тему  [ 1 сообщение ] 
Вы не можете начинать темы
Вы не можете отвечать на сообщения
Вы не можете редактировать свои сообщения
Вы не можете удалять свои сообщения