Правила форума

  • В этом разделе создание новых тем Запрещено.
  • Для создания новых тем пользуйтесь Корневым разделом DVD и HD фильмы.
Начать новую темуОтветить на тему  [ Сообщений: 5 ] 
Торрент файл
Размер: 8.03 GB • Зарегистрирован: 5 лет 3 месяца • Статус: Проверено
Скачан: 134 раза • Желающих скачать: 0 • Поблагодарили: 52 раза
 Раздают: 0  |  0 KB/s  ]   Качают: 0  |  0 KB/s  ] 
 Полного источника не было 1 день 2 часа 
Сообщения
 Добавлено: 2011-08-15 13:44
Руководитель релиз-группы
Аватара пользователя
Стаж: 9 лет 1 месяц
Возраст: 28
Сообщений: 4244
Спасибок: 31992
Лайков: 32
Изображение

Монстро
Cloverfield


«Это случится в январе.»

Год выпуска: 2008
Страна: Изображение США
Жанр: фантастика / триллер / катастрофа
Продолжительность: 01:24:40
Перевод: Профессиональный (полное дублирование) + Оригинал + Субтитры (русские - полные (CEE Blu-ray); русские - полные (-DaRkY-); русские - надписи и др.; английские - полные (CEE Blu-ray))

Режиссер: Мэтт Ривз
Сценарий: Дрю Годдар
Продюсер: Джей Джей Абрамс, Дэвид Бэроннэф, Брайан Берк
Оператор: Майкл Бонвилейн
Художник: Мартин Уист, Эллен Мирожник, Даг Дж. Мирдинк
Монтаж: Кевин Ститт

В ролях: Майкл Сталь-Дэвид (Rob Hawkins), Одетт Юстман (Beth McIntyre), Майк Фогель (Jason Hawkins), Джессика Лукас (Lily Ford), ТиДжей Миллер (Hud Platt), Лиззи Каплан (Marlena Diamond), Анжул Нигам (Bodega Cashier), Марго Фарли (Jenn), Тео Росси (Antonio), Брайан Клагман (Charlie), Келвин Ю (Clark), Лиза Лапира (Heather)

Дублёры: Илья Бледный (Rob Hawkins), Елена Ивасишина (Beth McIntyre), Филипп Бледный (Jason Hawkins), Наталья Фищук (Lily Ford), Илья Хвостиков (Hud Platt)

Описание: Прощальную вечеринку уезжающего в Японию Роба прерывает громогласный рык — нечто напало на Нью-Йорк, сея панику, разрушения и пожирая людей. Армия бессильна против гигантского монстра, Манхэттен объявлен закрытой зоной, но где-то неподалеку от Центрального парка в беду попала девушка Роба…

Раздача: Изображение

kinopoisk.ru: 7.297 (27 938)

Доп. информация
Бюджет: $25 000 000
Сборы в мире: $170 749 895
Сборы в США: $80 034 302
Сборы в России: $5 671 100
DVD в США: $26 820 201
Мировая премьера: 16 января 2008
Релиз на Blu-Ray: 20 октября 2009, «Юниверсал Пикчерс Рус»
Рейтинг PG-13 — Детям до 13 лет просмотр не желателен
Изображение
Настоятельное предупреждение родителям. Данный рейтинг получают фильмы, содержание которых может считаться неприемлемым для детей, не достигших 13-летнего возраста. По-прежнему, при этом рейтинге на экране отсутствуют сцены с насилием и обнажёнкой, но уже могут присутствовать неконкретизированные эпизоды с наркотиками и слова, связанные с сексом.
Свернуть
Свернуть
Знаете ли вы, что...
  • Первый рекламный ролик (тизер) к картине был обнародован перед показом «Трансформеров» в начале июля 2007 года. На тот момент проект не имел названия, и о его существовании знали лишь единицы.
  • Второй рекламный ролик (трейлер) был продемонстрирован публике 15 ноября 2007 года, перед показом ленты «Беовульф».
  • В рамках промо-кампании проекта были подготовлены фиктивные выпуски новостей о крушении буровой платформы «Чуай» в 7 вариантах - на итальянском, немецком, испанском, японском, французском, английском и русском языках.
  • Оригинальное название проекта («Кловерфилд») фактически является лишь кодовым именем картины. Именно так называется бульвар в городе Санта-Моника, где располагались офисы студии Джеффри Абрамса Bad Robot во время производства картины.
  • Производство самой картины началось уже после того, как зрителям был показан тизерный вариант ролика. Съемки проводились в Лос-Анджелесе и Нью-Йорке - съемки в Лос-Анджелесе проходили под кодовым фейк-названием «Slusho», а в Нью-Йорке - под фейк-названием «Cheese». На съемки в Нью-Йорке потребовалось 33 дня - с 7 июля по 8 августа 2007 года.
  • В начале фильма на мгновение появляется логотип Дхарма (являющийся центральным в сериале «Остаться в живых»).
  • В начале фильма на вечеринке в качестве фона звучит песня «Gorillaz» 19-2000, в клипе на которую также присутствует огромный монстр и тематика иноземного пришествия.
  • Фильм был снят за 34 дня.
  • Фильм начинается и заканчивается в 6:42 утра (это говорит сам оператор и это время указано на экране).
  • На вечеринке в честь проводов Роба, у его брата Джейсона мы можем увидеть футболку с надписью «Slusho», что являлось кодовым фейк-названием во время создания фильма.
  • В конце фильма Роб говорит дату и день недели (23 мая, суббота) - такое совпадение будет только в 2009 году.
  • Размер головы Статуи Свободы в финальном релизе фильма в полтора раза больше реального. По словам куратора компьютерных эффектов, это пришлось сделать из-за жалоб по поводу того, что изначально голова была слишком маленькой.
Свернуть

Качество: BDRip 1080p
Формат: Matroska
Видео: AVC; 1920x1080 (16:9); 11425 kbps; 23,976 fps; 0,230 bit/pixel
Аудио #1: AC3; 640 kbps; 48 kHz; 6 ch [DUB]
Аудио #2: DTS; 1536 kbps; 48 kHz; 6 ch [ENG]

MediaInfo
General
Unique ID : 171168783884304593176294136132373257802 (0x80C5E89CCF0FE2988A56F856DB171E4A)
Complete name : G:\Cloverfield.2008.BDRip.1080p[R.G.KiNOvNiNO].mkv
Format : Matroska
File size : 8.03 GiB
Duration : 1h 24mn
Overall bit rate : 13.6 Mbps
Movie name : Cloverfield (2008)
Encoded date : UTC 2011-08-15 09:58:41
Writing application : mkvmerge v2.9.8 ('C'est le bon') built on Aug 13 2009 12:49:06
Writing library : libebml v0.7.7 + libmatroska v0.8.1

Video
ID : 1
Format : AVC
Format/Info : Advanced Video Codec
Format profile : High@L4.1
Format settings, CABAC : Yes
Format settings, ReFrames : 4 frames
Codec ID : V_MPEG4/ISO/AVC
Duration : 1h 24mn
Bit rate : 11.4 Mbps
Width : 1 920 pixels
Height : 1 080 pixels
Display aspect ratio : 16:9
Frame rate : 23.976 fps
Color space : YUV
Chroma subsampling : 4:2:0
Bit depth : 8 bits
Scan type : Progressive
Bits/(Pixel*Frame) : 0.230
Stream size : 6.60 GiB (82%)
Writing library : x264 core 104 r1713 c276662
Encoding settings : cabac=1 / ref=4 / deblock=1:-3:-3 / analyse=0x3:0x113 / me=tesa / subme=10 / psy=1 / psy_rd=1.00:0.00 / mixed_ref=1 / me_range=32 / chroma_me=1 / trellis=2 / 8x8dct=1 / cqm=0 / deadzone=21,11 / fast_pskip=0 / chroma_qp_offset=-2 / threads=6 / sliced_threads=0 / nr=0 / decimate=0 / interlaced=0 / constrained_intra=0 / bframes=9 / b_pyramid=2 / b_adapt=2 / b_bias=0 / direct=3 / weightb=1 / open_gop=0 / weightp=2 / keyint=250 / keyint_min=23 / scenecut=40 / intra_refresh=0 / rc_lookahead=100 / rc=2pass / mbtree=1 / bitrate=11425 / ratetol=1.0 / qcomp=0.75 / qpmin=10 / qpmax=51 / qpstep=4 / cplxblur=20.0 / qblur=0.5 / vbv_maxrate=50000 / vbv_bufsize=62500 / ip_ratio=1.40 / aq=1:0.70 / zones=105979,121811,q=35 / nal_hrd=none
Language : English
Matrix coefficients : BT.709-5, BT.1361, IEC 61966-2-4 709, SMPTE RP177

Audio #1
ID : 2
Format : AC-3
Format/Info : Audio Coding 3
Mode extension : CM (complete main)
Codec ID : A_AC3
Duration : 1h 24mn
Bit rate mode : Constant
Bit rate : 640 Kbps
Channel(s) : 6 channels
Channel positions : Front: L C R, Side: L R, LFE
Sampling rate : 48.0 KHz
Bit depth : 16 bits
Compression mode : Lossy
Stream size : 388 MiB (5%)
Title : AC3; 640 Kbps @ 5.1 ch - (Дубляж) CEE Blu-ray
Language : Russian

Audio #2
ID : 3
Format : DTS
Format/Info : Digital Theater Systems
Codec ID : A_DTS
Duration : 1h 24mn
Bit rate mode : Constant
Bit rate : 1 510 Kbps
Channel(s) : 6 channels
Channel positions : Front: L C R, Side: L R, LFE
Sampling rate : 48.0 KHz
Bit depth : 24 bits
Compression mode : Lossy
Stream size : 914 MiB (11%)
Title : DTS; 1536 Kbps @ 5.1 ch
Language : English

Text #1
ID : 4
Format : UTF-8
Codec ID : S_TEXT/UTF8
Codec ID/Info : UTF-8 Plain Text
Title : (Full) Blu-ray CEE
Language : Russian

Text #2
ID : 5
Format : UTF-8
Codec ID : S_TEXT/UTF8
Codec ID/Info : UTF-8 Plain Text
Title : (Full) thx -DaRkY-
Language : Russian

Text #3
ID : 6
Format : UTF-8
Codec ID : S_TEXT/UTF8
Codec ID/Info : UTF-8 Plain Text
Title : Nadpisi, etc...
Language : Russian

Text #4
ID : 7
Format : UTF-8
Codec ID : S_TEXT/UTF8
Codec ID/Info : UTF-8 Plain Text
Title : (Full) Blu-ray CEE
Language : English

Menu
00:00:00.000 : en:Chapter 01
00:05:03.470 : en:Chapter 02
00:09:41.372 : en:Chapter 03
00:15:02.360 : en:Chapter 04
00:19:25.831 : en:Chapter 05
00:24:21.835 : en:Chapter 06
00:29:22.719 : en:Chapter 07
00:33:35.472 : en:Chapter 08
00:36:22.639 : en:Chapter 09
00:41:25.274 : en:Chapter 10
00:45:28.434 : en:Chapter 11
00:49:15.995 : en:Chapter 12
00:53:34.545 : en:Chapter 13
00:59:08.170 : en:Chapter 14
01:06:55.553 : en:Chapter 15
01:13:44.045 : en:Chapter 16
Свернуть

Скриншоты

Изображение

Изображение

Изображение

Свернуть
_________________
«you failed because you had the wrong dream...»
Не в сети
Профиль  
 Добавлено: 2012-02-15 22:52 (спустя 6 месяцев)
Аватара пользователя
Стаж: 8 лет 1 месяц
Возраст: 26
Сообщений: 132
Лайков: 1
Встанте на раздачу пожалуста!!!!!!!!
Не в сети
Профиль  
 Добавлено: 2014-03-24 19:05 (спустя 2 года 1 месяц)
Стаж: 9 лет
Сообщений: 13
Спасибок: 127
+
Не в сети
Профиль  
 Добавлено: 2014-03-26 16:58 (спустя 1 день 21 час)
Стаж: 4 года 7 месяцев
Сообщений: 58
Спасибок: 32
Лайков: 4
раздайте пожалуйста
спасибо не надо, скачал в другом месте
Не в сети
Профиль  
 Добавлено: 2014-03-30 19:31 (спустя 4 дня)
Аватара пользователя
Стаж: 3 года 8 месяцев
Сообщений: 3
А ведь создатели пяткой в грудь били, что фильм на дисках не выйдет...типа его смотреть надо только на большом экране...
Не в сети
Профиль  
Начать новую темуОтветить на тему  [ Сообщений: 5 ] 
Вы не можете начинать темы
Вы не можете отвечать на сообщения
Вы не можете редактировать свои сообщения
Вы не можете удалять свои сообщения