Правила форума

  • В этом разделе создание новых тем Запрещено.
  • Для создания новых тем пользуйтесь Корневым разделом DVD и HD фильмы.
Начать новую темуОтветить на тему  [ 1 сообщение ] 
Торрент файл
Размер: 7.78 GB • Зарегистрирован: 4 года 8 месяцев • Статус: Проверено
Скачан: 14 раз • Желающих скачать: 0 • Поблагодарили: 6 раз
 Раздают: 0  |  0 KB/s  ]   Качают: 0  |  0 KB/s  ] 
 Полного источника не было 3 года 2 месяца 
Сообщения
 Добавлено: 2012-03-31 08:58
Модератор релиз-группы
Аватара пользователя
Стаж: 9 лет 1 месяц
Возраст: 97
Сообщений: 11659
Спасибок: 6532
Лайков: 269
Море Солтона / The Salton Sea

Изображение


Год выпуска: 2002
Страна: США
Жанр: триллер, драма, криминал, детектив
Продолжительность: 01:43:24
Перевод:Профессиональный (многоголосый, закадровый)

Режиссер: Д. Дж. Карузо
Сценарий: Тони Гэйтон
Продюсер: Кен Агуадо, Джим Бенке, Фрэнк Дарабонт
Оператор: Амир М. Мокри
Композитор: Томас Ньюман

В ролях: Вэл Килмер, Винсент Д`Онофрио, Адам Голдберг, Луис Гузман, Даг Хатчисон, Энтони ЛаПалья, Гленн Пламмер, Питер Сарсгаард, Дебора Кара Ангер, Чандра Уэст
Описание: После убийства его возлюбленной жены, Фрэнк Паркер погружается в мир, в котором все обман. Сменив имя и внешность, он начинает опасное путешествие в преступном мире, чтобы найти убийцу жены, который на прямую связан с самыми опасными преступлениями в городе...
Изображение
Качество: HDTV
Формат: m2ts
Видео: MPEG2 Video 1920x1080 29.97fps 25000kbps
Аудио #1: Русский Dolby AC3 48000Hz 6ch 448kbps Профессиональный (многоголосый, закадровый)


"Скриншоты"
Изображение

Изображение

Изображение
Свернуть
Mi
Format : BDAV
Format/Info : Blu-ray Video
File size : 7.78 GiB
Duration : 1h 43mn
Overall bit rate mode : Variable
Overall bit rate : 10.8 Mbps
Maximum Overall bit rate : 35.5 Mbps

Video
ID : 4113 (0x1011)
Menu ID : 1 (0x1)
Format : MPEG Video
Format version : Version 2
Format profile : Main@High
Format settings, BVOP : Yes
Format settings, Matrix : Custom
Codec ID : 2
Duration : 1h 43mn
Bit rate mode : Variable
Bit rate : 9 876 Kbps
Maximum bit rate : 25.0 Mbps
Width : 1 920 pixels
Height : 1 080 pixels
Display aspect ratio : 16:9
Frame rate : 29.970 fps
Standard : Component
Color space : YUV
Chroma subsampling : 4:2:0
Bit depth : 8 bits
Compression mode : Lossy
Bits/(Pixel*Frame) : 0.159
Stream size : 7.13 GiB (92%)
Color primaries : BT.709
Transfer characteristics : BT.709
Matrix coefficients : BT.709

Audio
ID : 4352 (0x1100)
Menu ID : 1 (0x1)
Format : AC-3
Format/Info : Audio Coding 3
Mode extension : CM (complete main)
Codec ID : 129
Duration : 1h 43mn
Bit rate mode : Constant
Bit rate : 448 Kbps
Channel(s) : 6 channels
Channel positions : Front: L C R, Side: L R, LFE
Sampling rate : 48.0 KHz
Bit depth : 16 bits
Compression mode : Lossy
Delay relative to video : -33ms
Stream size : 332 MiB (4%)
Language : Russian

Text #1
ID : 4113 (0x1011)-608-1
Menu ID : 1 (0x1)
Format : EIA-608
Muxing mode : A/53 / DTVCC Transport
Muxing mode, more info : Muxed in Video #1
Duration : 1h 43mn
Bit rate mode : Constant
Stream size : 0.00 Byte (0%)

Text #2
ID : 4113 (0x1011)-1
Menu ID : 1 (0x1)
Format : EIA-708
Muxing mode : A/53 / DTVCC Transport
Muxing mode, more info : Muxed in Video #1
Duration : 1h 43mn
Bit rate mode : Constant
Stream size : 0.00 Byte (0%)

Свернуть
_________________
Изображение
Не в сети
Профиль  
Начать новую темуОтветить на тему  [ 1 сообщение ] 
Вы не можете начинать темы
Вы не можете отвечать на сообщения
Вы не можете редактировать свои сообщения
Вы не можете удалять свои сообщения