Правила форума

  • В этом разделе создание новых тем Запрещено.
  • Для создания новых тем пользуйтесь Корневым разделом DVD и HD фильмы.
Начать новую темуОтветить на тему  [ Сообщений: 3 ] 
Торрент файл
Размер: 9.88 GB • Зарегистрирован: 4 года 3 месяца • Статус: Проверено
Скачан: 89 раз • Желающих скачать: 0 • Поблагодарили: 16 раз
 Раздают: 0  |  0 KB/s  ]   Качают: 0  |  0 KB/s  ] 
 Полного источника не было 2 года 7 месяцев 
Сообщения
 Добавлено: 2012-08-20 12:46
Аватара пользователя
Стаж: 8 лет 8 месяцев
Сообщений: 4786
Спасибок: 47986
Лайков: 19
Морской бой / Battleship (2012) BDRip

«Битва за землю начнётся на воде.»

Изображение

Русское название: Морской бой
Оригинальное название: Battleship
Год выпуска: 2012
Производство: США
Жанр: Фантастика, Боевик, Триллер
Перевод: Дублированный [Лицензия]
Субтитры: Russian (Forced), Russian (Blu-ray), English, English (SDH Colored)

Вид субтитров: Вшитые отключаемые

Дата мировой премьеры: 3 апреля 2012
Дата российской премьеры: 19 апреля 2012, «UPI»
Дата выхода DVD релиза: 30 августа 2012, «Двадцатый Век Фокс СНГ»
Дата выхода Blu-Ray релиза: 13 сентября 2012, «Двадцатый Век Фокс СНГ»

Режиссер: Питер Берг
Продюсер: Сара Обри, Питер Берг, Брайан Голднер
Актеры: Лиам Нисон, Тейлор Китч, Александр Скарсгард, Бруклин Декер, Рианна, Джесси Племонс, Джон Белл, Питер МакНикол, Таданобу Асано, Джошуа Пенс

Описание фильма:
Мы посылаем сигналы в космос и ждем ответа. Но уверены ли мы, что хотим его получить? Что если пришельцы потенциально опасны? В 2009 году на конференции в Вашингтоне астронавт Эдгар Митчелл, побывавший на Луне, сделал сенсационное заявление о существовании внеземной жизни. Теперь мы знаем, контакт не просто возможен, он неизбежен!
Релиз от: Изображение

Продолжительность: 02:11:15
Качество видео: BDRip

Видеокодек: MPEG-4 AVC / H.264
Битрейт видео: ~ 8500 Kbit/s
Размер кадра: 1280x534
Аудио#1: Russian: 48 kHz, DTS, 3/2 (L,C,R,l,r) + LFE ch, ~768.00 kbps avg |Дубляж, Blu-ray|
Аудио#2: English: 48 kHz, DTS, 3/2 (L,C,R,l,r) + LFE ch, ~1536.00 kbps avg

Сэмпл: Скачать
MI
Общее
Уникальный идентификатор                 : 198056078454480944130096197531044736038 (0x9500369558940DD783106B85D0F8EC26)
Полное имя                               : C:\Users\SerG\Downloads\Battleship.2012.720p.BluRay.Rus.Eng.mkv
Формат                                   : Matroska
Версия формата                           : Version 2
Размер файла                             : 9,88 Гбайт
Продолжительность                        : 2 ч. 11 м.
Общий поток                              : 10,8 Мбит/сек
Название фильма                          : Battleship (2012)
Дата кодирования                         : UTC 2012-08-19 16:41:47
Программа кодирования                    : mkvmerge v3.4.0 ('Rapunzel') built on May 15 2010 09:38:20
Библиотека кодирования                   : libebml v0.8.0 + libmatroska v0.9.0

Видео
Идентификатор                            : 1
Формат                                   : AVC
Формат/Информация                        : Advanced Video Codec
Профиль формата                          : High@L4.1
Параметр CABAC формата                   : Да
Параметр ReFrames формата                : 11 кадров
Идентификатор кодека                     : V_MPEG4/ISO/AVC
Продолжительность                        : 2 ч. 11 м.
Битрейт                                  : 8500 Кбит/сек
Ширина                                   : 1280 пикселей
Высота                                   : 534 пикселя
Соотношение сторон                       : 2,40:1
Частота кадров                           : 23,976 кадра/сек
Цветовое пространство                    : YUV
Субдискретизация насыщенности            : 4:2:0
Битовая глубина                          : 8 бит
Тип развёртки                            : Прогрессивная
Бит/(Пиксели*Кадры)                      : 0.519
Размер потока                            : 7,61 Гбайт (77%)
Заголовок                                : Release for HDCLUB
Библиотека кодирования                   : x264 core 116 r2057 0ba8a9c
Настройки программы                      : cabac=1 / ref=11 / deblock=1:-3:-3 / analyse=0x3:0x133 / me=umh / subme=10 / psy=1 / psy_rd=1.00:0.00 / mixed_ref=1 / me_range=32 / chroma_me=1 / trellis=2 / 8x8dct=1 / cqm=0 / deadzone=21,11 / fast_pskip=0 / chroma_qp_offset=-2 / threads=14 / sliced_threads=0 / nr=0 / decimate=0 / interlaced=0 / bluray_compat=0 / constrained_intra=0 / bframes=7 / b_pyramid=2 / b_adapt=2 / b_bias=0 / direct=3 / weightb=1 / open_gop=0 / weightp=2 / keyint=250 / keyint_min=23 / scenecut=40 / intra_refresh=0 / rc_lookahead=40 / rc=2pass / mbtree=0 / bitrate=8500 / ratetol=1.0 / qcomp=0.65 / qpmin=0 / qpmax=40 / qpstep=4 / cplxblur=20.0 / qblur=0.5 / vbv_maxrate=50000 / vbv_bufsize=50000 / nal_hrd=none / ip_ratio=1.25 / pb_ratio=1.25 / aq=1:0.65
Язык                                     : English
Default                                  : Нет
Forced                                   : Нет

Аудио #1
Идентификатор                            : 2
Формат                                   : DTS
Формат/Информация                        : Digital Theater Systems
Идентификатор кодека                     : A_DTS
Продолжительность                        : 2 ч. 11 м.
Вид битрейта                             : Постоянный
Битрейт                                  : 755 Кбит/сек
Каналы                                   : 6 каналов
Расположение каналов                     : Front: L C R, Side: L R, LFE
Частота                                  : 48,0 КГц
Битовая глубина                          : 24 бит
Метод сжатия                             : С потерями
Размер потока                            : 708 Мбайт (7%)
Заголовок                                : DTS 5.1 @ 768 kbps - Дублированный, BluRay
Язык                                     : Russian
Default                                  : Да
Forced                                   : Нет

Аудио #2
Идентификатор                            : 3
Формат                                   : DTS
Формат/Информация                        : Digital Theater Systems
Идентификатор кодека                     : A_DTS
Продолжительность                        : 2 ч. 11 м.
Вид битрейта                             : Постоянный
Битрейт                                  : 1510 Кбит/сек
Каналы                                   : 6 каналов
Расположение каналов                     : Front: L C R, Side: L R, LFE
Частота                                  : 48,0 КГц
Битовая глубина                          : 24 бит
Метод сжатия                             : С потерями
Задержка видео                           : 11 мс.
Размер потока                            : 1,38 Гбайт (14%)
Заголовок                                : DTS 5.1 @ 1536 kbps
Язык                                     : English
Default                                  : Нет
Forced                                   : Нет

Текст #1
Идентификатор                            : 4
Формат                                   : UTF-8
Идентификатор кодека                     : S_TEXT/UTF8
Идентификатор кодека/Информация          : UTF-8 Plain Text
Заголовок                                : Forced
Язык                                     : Russian
Default                                  : Да
Forced                                   : Да

Текст #2
Идентификатор                            : 5
Формат                                   : UTF-8
Идентификатор кодека                     : S_TEXT/UTF8
Идентификатор кодека/Информация          : UTF-8 Plain Text
Заголовок                                : Full
Язык                                     : Russian
Default                                  : Нет
Forced                                   : Нет

Текст #3
Идентификатор                            : 6
Формат                                   : UTF-8
Идентификатор кодека                     : S_TEXT/UTF8
Идентификатор кодека/Информация          : UTF-8 Plain Text
Язык                                     : English
Default                                  : Нет
Forced                                   : Нет

Текст #4
Идентификатор                            : 7
Формат                                   : UTF-8
Идентификатор кодека                     : S_TEXT/UTF8
Идентификатор кодека/Информация          : UTF-8 Plain Text
Заголовок                                : SDH Colored
Язык                                     : English
Default                                  : Нет
Forced                                   : Нет

Меню
00:00:00.000                             : en:00:00:00.000
00:09:24.105                             : en:00:09:24.105
00:15:04.320                             : en:00:15:04.320
00:23:08.679                             : en:00:23:08.679
00:29:44.032                             : en:00:29:44.032
00:36:26.810                             : en:00:36:26.810
00:42:01.269                             : en:00:42:01.269
00:49:09.655                             : en:00:49:09.655
00:56:08.323                             : en:00:56:08.323
01:00:02.224                             : en:01:00:02.224
01:09:50.520                             : en:01:09:50.520
01:15:26.731                             : en:01:15:26.731
01:20:56.935                             : en:01:20:56.935
01:29:47.424                             : en:01:29:47.424
01:37:14.412                             : en:01:37:14.412
01:43:32.248                             : en:01:43:32.248
01:49:38.572                             : en:01:49:38.572
01:56:20.682                             : en:01:56:20.682
02:00:41.359                             : en:02:00:41.359
02:09:33.975                             : en:02:09:33.975

Свернуть


Cкриншоты
Изображение
Изображение
Изображение
Изображение
Изображение
Изображение
Изображение
Изображение
Свернуть
_________________
Intel Core i7-5930K 4.6 GHz / ASUS Rampage V Extreme / GeForce GTX 1080 SLI / Corsair Dominator Platinum 128 Гб (8x16 Гб) / 512Gb SSD Samsung 950 Pro Series / Corsair AX1200i / Corsair H110i GTX / ASUS ROG Swift PG279Q
Не в сети
Профиль  
 Добавлено: 2012-08-20 14:54 (спустя 2 часа 8 минут)
Аватара пользователя
Стаж: 6 лет 6 месяцев
Сообщений: 19963
Спасибок: 721
Лайков: 461
Опачки! Блюрик на выходе! Спасибо, забираем!)
_________________
It was I'am ... :jn_pu_sk:
Медали и Ордена
ИзображениеИзображение
Свернуть
Не в сети
Профиль  
 Добавлено: 2012-08-21 23:15 (спустя 1 день 8 часов)
Аватара пользователя
Стаж: 9 лет 1 месяц
Сообщений: 2154
Спасибок: 778
Лайков: 14
Очень оперативно, спс за 720p.
_________________
PSN
Изображение
Свернуть
Изображение
Не в сети
Профиль  
Начать новую темуОтветить на тему  [ Сообщений: 3 ] 
Вы не можете начинать темы
Вы не можете отвечать на сообщения
Вы не можете редактировать свои сообщения
Вы не можете удалять свои сообщения