Правила форума

  • В этом разделе создание новых тем Запрещено.
  • Для создания новых тем пользуйтесь Корневым разделом DVD и HD фильмы.
Начать новую темуОтветить на тему  [ Сообщений: 6 ] 
Торрент файл
Размер: 10.25 GB • Зарегистрирован: 4 года 4 месяца • Статус: Проверено
Скачан: 233 раза • Желающих скачать: 0 • Поблагодарили: 28 раз
 Раздают: 0  |  0 KB/s  ]   Качают: 0  |  0 KB/s  ] 
 Полного источника не было 2 года 7 месяцев 
Сообщения
 Добавлено: 2012-08-04 13:59
Модератор релиз-группы
Аватара пользователя
Стаж: 9 лет 1 месяц
Возраст: 97
Сообщений: 11660
Спасибок: 6534
Лайков: 269
Морской бой / Battleship
«Битва за Землю начнётся на воде»

Изображение

Год выпуска: 2012
Страна: США
Жанр: фантастика, боевик, триллер, приключения, военный
Продолжительность: 02:11:14
Перевод: Авторский (одноголосый) Zamez

Режиссер: Питер Берг


В ролях: Тейлор Китч, Александр Скарсгард, Рианна, Бруклин Декер, Таданобу Асано, Лиам Нисон, Джон Туи, Грегори Д. Гэдсон, Джесси Племонс, Хамиш Линклэйтер, Питер МакНикол, Джерри Феррара

Описание: Мы посылаем сигналы в космос и ждем ответа. Но уверены ли мы, что хотим его получить? Что если пришельцы потенциально опасны? В 2009 году на конференции в Вашингтоне астронавт Эдгар Митчелл, побывавший на Луне, сделал сенсационное заявление о существовании внеземной жизни. Теперь мы знаем, контакт не просто возможен, он неизбежен!
Изображение

Качество: BDRip, 1080p
Формат: Matroska
Видео: MPEG-4 AVC/H.264, ~9223 kbps, 1920 x 800
Аудио №1: Русский, AC3 5.1, 448 kbps, 48 kHz
Аудио №2: Английский, DTS 5.1, 1510 kbps, 48 kHz
Субтитры: Английские
скриншоты
Изображение

Изображение

Изображение

Изображение
Свернуть
Mi
Формат : Matroska
Версия формата : Version 2
Размер файла : 10,3 Гбайт
Продолжительность : 2 ч. 11 м.
Общий поток : 11,2 Мбит/сек
Дата кодирования : UTC 2012-08-03 18:18:42
Программа кодирования : mkvmerge v5.2.0 ('I can't explain') built on Dec 18 2011 18:12:03
Библиотека кодирования : libebml v1.2.3 + libmatroska v1.3.0

Видео
Идентификатор : 1
Формат : AVC
Формат/Информация : Advanced Video Codec
Профиль формата : High@L4.1
Параметр CABAC формата : Да
Параметр ReFrames формата : 5 кадров
Идентификатор кодека : V_MPEG4/ISO/AVC
Продолжительность : 2 ч. 11 м.
Битрейт : 9223 Кбит/сек
Ширина : 1920 пикселей
Высота : 800 пикселей
Соотношение сторон : 2,40:1
Частота кадров : 23,976 кадра/сек
Цветовое пространство : YUV
Субдискретизация насыщенности : 4:2:0
Битовая глубина : 8 бит
Тип развёртки : Прогрессивная
Бит/(Пиксели*Кадры) : 0.250
Размер потока : 8,25 Гбайт (81%)
Библиотека кодирования : x264 core 125 r2208 d9d2288
Настройки программы : cabac=1 / ref=5 / deblock=1:0:0 / analyse=0x3:0x133 / me=umh / subme=7 / psy=1 / psy_rd=1.00:0.00 / mixed_ref=1 / me_range=16 / chroma_me=1 / trellis=1 / 8x8dct=1 / cqm=0 / deadzone=21,11 / fast_pskip=0 / chroma_qp_offset=-2 / threads=18 / lookahead_threads=3 / sliced_threads=0 / nr=0 / decimate=1 / interlaced=0 / bluray_compat=0 / constrained_intra=0 / bframes=3 / b_pyramid=2 / b_adapt=1 / b_bias=0 / direct=1 / weightb=1 / open_gop=0 / weightp=2 / keyint=250 / keyint_min=23 / scenecut=40 / intra_refresh=0 / rc_lookahead=40 / rc=2pass / mbtree=1 / bitrate=9223 / ratetol=1.0 / qcomp=0.60 / qpmin=0 / qpmax=69 / qpstep=4 / cplxblur=20.0 / qblur=0.5 / ip_ratio=1.40 / aq=1:1.00
Язык : English
Default : Да
Forced : Нет

Аудио #1
Идентификатор : 2
Формат : AC-3
Формат/Информация : Audio Coding 3
Расширение режима : CM (complete main)
Параметр Endianness формата : Big
Идентификатор кодека : A_AC3
Продолжительность : 2 ч. 11 м.
Вид битрейта : Постоянный
Битрейт : 448 Кбит/сек
Каналы : 6 каналов
Расположение каналов : Front: L C R, Side: L R, LFE
Частота : 48,0 КГц
Битовая глубина : 16 бит
Метод сжатия : С потерями
Размер потока : 421 Мбайт (4%)
Заголовок : VO zamez
Язык : Russian
Default : Да
Forced : Нет

Аудио #2
Идентификатор : 3
Формат : DTS
Формат/Информация : Digital Theater Systems
Идентификатор кодека : A_DTS
Продолжительность : 2 ч. 11 м.
Вид битрейта : Постоянный
Битрейт : 1510 Кбит/сек
Каналы : 6 каналов
Расположение каналов : Front: L C R, Side: L R, LFE
Частота : 48,0 КГц
Битовая глубина : 24 бит
Метод сжатия : С потерями
Размер потока : 1,38 Гбайт (14%)
Язык : English
Default : Нет
Forced : Нет

Текст #1
Идентификатор : 4
Формат : UTF-8
Идентификатор кодека : S_TEXT/UTF8
Идентификатор кодека/Информация : UTF-8 Plain Text
Язык : English
Default : Нет
Forced : Нет

Текст #2
Идентификатор : 5
Формат : UTF-8
Идентификатор кодека : S_TEXT/UTF8
Идентификатор кодека/Информация : UTF-8 Plain Text
Заголовок : SDH
Язык : English
Default : Нет
Forced : Нет

Меню
00:00:00.000 : en:00:00:00.000
00:09:24.105 : en:00:09:24.105
00:15:04.320 : en:00:15:04.320
00:23:08.679 : en:00:23:08.679
00:29:44.032 : en:00:29:44.032
00:36:26.810 : en:00:36:26.810
00:42:01.269 : en:00:42:01.269
00:49:09.655 : en:00:49:09.655
00:56:08.323 : en:00:56:08.323
01:00:02.224 : en:01:00:02.224
01:09:50.520 : en:01:09:50.520
01:15:26.731 : en:01:15:26.731
01:20:56.935 : en:01:20:56.935
01:29:47.424 : en:01:29:47.424
01:37:14.412 : en:01:37:14.412
01:43:32.248 : en:01:43:32.248
01:49:38.572 : en:01:49:38.572
01:56:20.682 : en:01:56:20.682
02:00:41.359 : en:02:00:41.359
02:09:33.975 : en:02:09:33.975
Свернуть
_________________
Изображение
Не в сети
Профиль  
 Добавлено: 2012-08-04 19:42 (спустя 5 часов)
Аватара пользователя
Стаж: 9 лет
Сообщений: 167
Спасибок: 38
полный блюху выставь
Не в сети
Профиль  
 Добавлено: 2012-08-05 16:58 (спустя 21 час)
Стаж: 4 года 8 месяцев
Сообщений: 3
поток с переводом не работает! аффтар уг!
Не в сети
Профиль  
 Добавлено: 2012-08-05 19:01 (спустя 2 часа 3 минуты)
Модератор релиз-группы
Аватара пользователя
Стаж: 9 лет 1 месяц
Возраст: 97
Сообщений: 11660
Спасибок: 6534
Лайков: 269
Скачан: 92 раза
и только у одного

hizboz:

поток с переводом не работает!
руки выпрями и мозги включи

hizboz:

аффтар уг!
а ты его видел ? :hi_hi_hi:
_________________
Изображение
Не в сети
Профиль  
 Добавлено: 2012-08-05 23:18 (спустя 4 часа)
Аватара пользователя
Стаж: 5 лет 9 месяцев
Возраст: 38
Сообщений: 191
Лайков: 28
что за отстойный перевод? Вспоминается гнусавый перевод конца 80-их в видеосалонах. Качество изображение отличное, перевод полное уг.
Не в сети
Профиль  
 Добавлено: 2012-08-07 07:12 (спустя 1 день 7 часов)
DVD Release Group
Аватара пользователя
Стаж: 7 лет 10 месяцев
Сообщений: 364
Спасибок: 3090
Лайков: 10
Раздающему спасибо.
Скажу пару слов об этом звуке, как оно есть на самом деле.
Перевод, конечно шляпа, но другого пока нет (TS не в счет). Тут есть еще одна серьезная неприятность. Голос переводчика звучит в пяти из шести каналов (кроме LFE). Вот это реально какшка. :hi_hi_hi:

Cкрытый текст
Изображение
Свернуть
Вот как должно быть, это звук из рипа, с рушки.
Cкрытый текст
Изображение
Свернуть
Разница очевидна.
Не в сети
Профиль  
Начать новую темуОтветить на тему  [ Сообщений: 6 ] 
Вы не можете начинать темы
Вы не можете отвечать на сообщения
Вы не можете редактировать свои сообщения
Вы не можете удалять свои сообщения