Правила форума

  • В этом разделе создание новых тем Запрещено.
  • Для создания новых тем пользуйтесь Корневым разделом DVD и HD фильмы.
Начать новую темуОтветить на тему  [ Сообщений: 11 ] 
Торрент файл
Размер: 9.36 GB • Зарегистрирован: 4 года 1 месяц • Статус: Проверено
Скачан: 343 раза • Желающих скачать: 0 • Поблагодарили: 82 раза
 Раздают: 0  |  0 KB/s  ]   Качают: 0  |  0 KB/s  ] 
 Полного источника не было 8 месяцев 
Сообщения
 Добавлено: 2012-10-18 15:21
Top-releaser
Аватара пользователя
Стаж: 8 лет 9 месяцев
Сообщений: 479
Спасибок: 20189
Лайков: 16
Изображение

Москва 2017

Branded


«Город будет захвачен»

Год выпуска: 2012
Страна: Изображение США; Mirumir, TNT
Жанр: Фантастика, триллер
Продолжительность: 01:46:24
Перевод: Профессиональный (дублированный) [Лицензия], Оригинал
Субтитры: Русские

Режиссёр: Джейми Брэдшоу, Александр Дулерайн / Jamie Bradshaw, Alex Dulerine

В ролях: Эд Стоппард, Джефри Тэмбор, Лили Собески, Джон Ласковски, Макс фон Сюдов, Ингеборга Дапкунайте, Андрей Кайков, Атанас Сребрев, Эмма Стикгольд, Любомир Йончев

Описание: Действие происходит в недалеком будущем. Главный герой, Михаил Галкин, замечает, как вокруг накапливаются перемены… Происходят события, казалось бы, не связанные между собой… Он обнаруживает глобальный заговор и понимает, что за этим заговором стоят скрытые силы, контролирующие наш мир. И эти силы не принадлежат человеческой цивилизации. Герой начинает против них войну. Войну, которую нельзя проиграть.


Качество: BDRip 1080p
Формат: MKV

Видео: MPEG-4 AVC, 11.7 Mбит/с, 1920х816, (2.353) at 24.000 fps

Аудио 1: AC3 Dolby Digital, 448 Кбит/сек, 6 канала(ов), 48,0 КГц [Дубляж]
Аудио 2: AC3 Dolby Digital, 448 Кбит/сек, 6 канала(ов), 48,0 КГц [Оригинал]
Релиз : Изображение Раздача: Изображение


Изображение
MediaInfo

Общее
Уникальный идентификатор : 199169118490896258014110078997838157876 (0x95D693B1AD421E1D834850CC8017D834)
Полное имя : C:\Users\Домашний\Desktop\Moskva.2017.2012.1080p.[nntt].mkv
Формат : Matroska
Размер файла : 9,36 Гбайт
Продолжительность : 1 ч. 46 м.
Общий поток : 12,6 Мбит/сек
Название фильма : _CMEGroup_BLUEBIRD
Дата кодирования : UTC 2012-10-18 04:09:52
Программа кодирования : mkvmerge v5.8.0 ('No Sleep / Pillow') built on Sep 2 2012 15:37:04
Библиотека кодирования : libebml v1.2.3 + libmatroska v1.3.0

Видео
Идентификатор : 1
Формат : AVC
Формат/Информация : Advanced Video Codec
Профиль формата : High@L4.1
Параметр CABAC формата : Да
Параметр ReFrames формата : 4 кадры
Идентификатор кодека : V_MPEG4/ISO/AVC
Продолжительность : 1 ч. 46 м.
Битрейт : 11,7 Мбит/сек
Ширина : 1920 пикс.
Высота : 816 пикс.
Соотношение сторон : 2,35:1
Частота кадров : 24,000 кадр/сек
Цветовое пространство : YUV
Подвыборка цветности : 4:2:0
Битовая глубина : 8 бит
Тип развёртки : Прогрессивная
Бит/(Пиксели*Кадры) : 0.311
Размер потока : 8,51 Гбайт (91%)
Библиотека кодирования : x264 core 128 r2216 198a7ea
Настройки программы : cabac=1 / ref=4 / deblock=1:-3:-3 / analyse=0x3:0x113 / me=umh / subme=11 / psy=1 / psy_rd=1.00:0.00 / mixed_ref=1 / me_range=32 / chroma_me=1 / trellis=2 / 8x8dct=1 / cqm=0 / deadzone=21,11 / fast_pskip=1 / chroma_qp_offset=-2 / threads=6 / lookahead_threads=1 / sliced_threads=0 / nr=0 / decimate=1 / interlaced=0 / bluray_compat=0 / constrained_intra=0 / bframes=6 / b_pyramid=2 / b_adapt=2 / b_bias=0 / direct=2 / weightb=0 / open_gop=0 / weightp=2 / keyint=240 / keyint_min=24 / scenecut=40 / intra_refresh=0 / rc_lookahead=40 / rc=2pass / mbtree=1 / bitrate=11700 / ratetol=1.0 / qcomp=0.60 / qpmin=0 / qpmax=69 / qpstep=4 / cplxblur=20.0 / qblur=0.5 / ip_ratio=1.40 / aq=1:1.00
Язык : English

Аудио #1
Идентификатор : 2
Формат : AC-3
Формат/Информация : Audio Coding 3
Расширение режима : CM (complete main)
Идентификатор кодека : A_AC3
Продолжительность : 1 ч. 46 м.
Вид битрейта : Постоянный
Битрейт : 448 Кбит/сек
Канал(ы) : 6 канала(ов)
Расположение каналов : Front: L C R, Side: L R, LFE
Частота : 48,0 КГц
Битовая глубина : 16 бит
Метод сжатия : С потерями
Размер потока : 341 Мбайт (4%)
Язык : Russian

Аудио #2
Идентификатор : 3
Формат : AC-3
Формат/Информация : Audio Coding 3
Расширение режима : CM (complete main)
Идентификатор кодека : A_AC3
Продолжительность : 1 ч. 46 м.
Вид битрейта : Постоянный
Битрейт : 448 Кбит/сек
Канал(ы) : 6 канала(ов)
Расположение каналов : Front: L C R, Side: L R, LFE
Частота : 48,0 КГц
Битовая глубина : 16 бит
Метод сжатия : С потерями
Размер потока : 341 Мбайт (4%)
Язык : English

Текст
Идентификатор : 4
Формат : UTF-8
Идентификатор кодека : S_TEXT/UTF8
Идентификатор кодека/Информация : UTF-8 Plain Text
Язык : Russian

Меню
00:00:00.000 : :Chapter 01
00:09:48.125 : :Chapter 02
00:20:53.000 : :Chapter 03
00:30:50.166 : :Chapter 04
00:38:13.000 : :Chapter 05
00:50:09.041 : :Chapter 06
01:00:52.666 : :Chapter 07
01:13:33.458 : :Chapter 08
01:21:41.750 : :Chapter 09
01:31:19.500 : :Chapter 10
01:41:42.291 : :Chapter 11


Свернуть
Скриншоты

Изображение
Изображение
Изображение
Изображение
Изображение
Изображение
Свернуть
_________________
Изображение
Изображение
Не в сети
Профиль  
 Добавлено: 2012-10-18 17:01 (спустя 1 час 39 минут)
Аватара пользователя
Стаж: 7 лет 9 месяцев
Возраст: 29
Сообщений: 28
кто нить смотрел? стоит это вообще качать то? )
Не в сети
Профиль  
 Добавлено: 2012-10-18 17:52 (спустя 50 минут)
Стаж: 5 лет 10 месяцев
Сообщений: 280
Лайков: 8
Смотрел...в ДВД качестве......а ты глянь третий скрин,кто там в очечках то(6 кадров)и поймешь что за фильм.
Не в сети
Профиль  
 Добавлено: 2012-10-21 09:24 (спустя 2 дня 15 часов)
Аватара пользователя
Стаж: 8 лет 7 месяцев
Сообщений: 165
Лайков: 6
вот интересно а ЭТО в кинотеатрах шло................. :-D
Не в сети
Профиль  
 Добавлено: 2012-10-22 16:58 (спустя 1 день 7 часов)
Аватара пользователя
Стаж: 8 лет 11 месяцев
Сообщений: 170
Спасибок: 139
Кино полное гуано, чего тока стоит увидеть дракона со стекляным шаром на жопе)
Не в сети
Профиль  
 Добавлено: 2012-10-23 23:34 (спустя 1 день 6 часов)
Аватара пользователя
Стаж: 8 лет 1 месяц
Возраст: 25
Сообщений: 35
Спасибок: 7
ППц самый дурацкий фильм который я видел...... :wo_ol:
Не в сети
Профиль  
 Добавлено: 2012-10-29 08:14 (спустя 5 дней)
Стаж: 9 лет
Сообщений: 95
это ппц конечно, я заблевал весь ТВ :-D
Не в сети
Профиль  
 Добавлено: 2012-11-03 23:55 (спустя 5 дней)
Аватара пользователя
Стаж: 8 лет 11 месяцев
Сообщений: 517
Спасибок: 39
Лайков: 49

Longbeach:

Смотрел...в ДВД качестве......а ты глянь третий скрин,кто там в очечках то(6 кадров)и поймешь что за фильм.

Не третий, а пятый.
Не в сети
Профиль  
 Добавлено: 2012-11-04 23:22 (спустя 23 часа)
Стаж: 8 лет
Сообщений: 39
Качество :ya_hoo_oo: :ya_hoo_oo:
Не в сети
Профиль  
 Добавлено: 2012-11-05 02:03 (спустя 2 часа 40 минут)
Аватара пользователя
Стаж: 8 лет 9 месяцев
Возраст: 31
Сообщений: 54
Спасибок: 13
Отличный фильм! Всем смотреть!
Не в сети
Профиль  
 Добавлено: 2012-11-05 10:27 (спустя 8 часов)
Аватара пользователя
Стаж: 8 лет 11 месяцев
Возраст: 29
Сообщений: 473
Спасибок: 2973
Лайков: 1
УГ!
Не в сети
Профиль  
Начать новую темуОтветить на тему  [ Сообщений: 11 ] 
Вы не можете начинать темы
Вы не можете отвечать на сообщения
Вы не можете редактировать свои сообщения
Вы не можете удалять свои сообщения