Правила форума

  • В этом разделе создание новых тем Запрещено.
  • Для создания новых тем пользуйтесь Корневым разделом DVD и HD фильмы.
Начать новую темуОтветить на тему  [ Сообщений: 4 ] 
Торрент файл
Размер: 4.37 GB • Зарегистрирован: 4 года 1 месяц • Статус: Проверено
Скачан: 138 раз • Желающих скачать: 0 • Поблагодарили: 33 раза
 Раздают: 0  |  0 KB/s  ]   Качают: 0  |  0 KB/s  ] 
 Полного источника не было 2 месяца 23 дня 
Сообщения
 Добавлено: 2012-10-18 12:07
Аватара пользователя
Стаж: 7 лет 4 месяца
Возраст: 21
Сообщений: 419
Спасибок: 12707
Лайков: 18
Изображение
Москва 2017 / Branded

«Город будет захвачен»

Год выпуска: 2012
Страна: США
Жанр: Фантастика, триллер
Продолжительность: 01:46:24
Перевод: Профессиональный (полное дублирование) [Лицензия]

Режиссер: Джейми Брэдшоу, Александр Дулерайн
Сценарий: Джейми Брэдшоу, Александр Дулерайн
Продюсер: Джейми Брэдшоу, Александр Дулерайн, Александр Любимов
Оператор: Рохир Стофферс
Композитор: Эдуард Артемьев

В ролях: Эд Стоппард, Джефри Тэмбор, Лили Собески, Джон Ласковски, Макс фон Сюдов, Ингеборга Дапкунайте, Андрей Кайков, Атанас Сребрев, Эмма Стикгольд, Любомир Йончев

Описание: Действие происходит в недалеком будущем. Главный герой, Михаил Галкин, замечает, как вокруг накапливаются перемены… Происходят события, казалось бы, не связанные между собой… Он обнаруживает глобальный заговор и понимает, что за этим заговором стоят скрытые силы, контролирующие наш мир. И эти силы не принадлежат человеческой цивилизации. Герой начинает против них войну. Войну, которую нельзя проиграть.

Раздача: Изображение


kinopoisk.ru: 2.872 (9 233)
imdb.com: 4.60 (927)


Сборы в США: $353 513
Сборы в России: $3 842 370
Мировая премьера: 7 сентября 2012
Премьера РФ: 7 сентября 2012, «Каропрокат»
Релиз на DVD: 16 октября 2012, «Флагман-Трейд»
Релиз на Blu-Ray: 16 октября 2012, «Флагман-Трейд»

Качество: BDRip [1080p]
Формат: Matroska
Видео: 1920x816, 5428 Кбит/сек, 24,000 кадр/сек, AVC, x264, 2,35:1, 0.144 Бит/[Пиксели*Кадры], 2pass
Аудио: AC-3, 448 Кбит/сек, 6 канала(ов), 48,0 КГц


Изображение

MediaInfo:
Общее
Уникальный идентификатор : 216020022499991522478165651832645419345 (0xA283F167EC5DCEEE8709036547310151)
Полное имя : D:TorrentBranded.2012.x264.BDRip.1080p.DUB.mkv
Формат : Matroska
Версия формата : Version 2
Размер файла : 4,37 Гбайт
Продолжительность : 1 ч. 46 м.
Общий поток : 5876 Кбит/сек
Дата кодирования : UTC 2012-10-18 02:16:07
Программа кодирования : mkvmerge v5.5.0 ('Healer') built on Apr 6 2012 21:43:24
Библиотека кодирования : libebml v1.2.3 + libmatroska v1.3.0

Видео
Идентификатор : 1
Формат : AVC
Формат/Информация : Advanced Video Codec
Профиль формата : High@L4.0
Параметр CABAC формата : Да
Параметр ReFrames формата : 4 кадра
Идентификатор кодека : V_MPEG4/ISO/AVC
Продолжительность : 1 ч. 46 м.
Битрейт : 5428 Кбит/сек
Ширина : 1920 пикселей
Высота : 816 пикселей
Соотношение сторон : 2,35:1
Соотношение сторон в оригинале : 2,35:1
Частота кадров : 24,000 кадра/сек
Цветовое пространство : YUV
Субдискретизация насыщенности : 4:2:0
Битовая глубина : 8 бит
Тип развёртки : Прогрессивная
Бит/(Пиксели*Кадры) : 0.144
Размер потока : 3,95 Гбайт (90%)
Заголовок : Москва 2017
Библиотека кодирования : x264 core 128 r2216 198a7ea
Настройки программы : cabac=1 / ref=4 / deblock=1:0:0 / analyse=0x3:0x133 / me=hex / subme=7 / psy=1 / psy_rd=1.00:0.00 / mixed_ref=1 / me_range=16 / chroma_me=1 / trellis=1 / 8x8dct=1 / cqm=0 / deadzone=21,11 / fast_pskip=1 / chroma_qp_offset=-2 / threads=12 / lookahead_threads=2 / sliced_threads=0 / nr=0 / decimate=1 / interlaced=0 / bluray_compat=0 / constrained_intra=0 / bframes=3 / b_pyramid=2 / b_adapt=1 / b_bias=0 / direct=1 / weightb=1 / open_gop=0 / weightp=2 / keyint=240 / keyint_min=24 / scenecut=40 / intra_refresh=0 / rc_lookahead=40 / rc=2pass / mbtree=1 / bitrate=5428 / ratetol=1.0 / qcomp=0.60 / qpmin=10 / qpmax=51 / qpstep=4 / cplxblur=20.0 / qblur=0.5 / ip_ratio=1.40 / aq=1:1.00
Язык : English
Default : Да
Forced : Нет

Аудио
Идентификатор : 2
Формат : AC-3
Формат/Информация : Audio Coding 3
Расширение режима : CM (complete main)
Идентификатор кодека : A_AC3
Продолжительность : 1 ч. 46 м.
Вид битрейта : Постоянный
Битрейт : 448 Кбит/сек
Каналы : 6 каналов
Расположение каналов : Front: L C R, Side: L R, LFE
Частота : 48,0 КГц
Битовая глубина : 16 бит
Метод сжатия : С потерями
Размер потока : 341 Мбайт (8%)
Заголовок : Дублированное [лицензия]
Язык : Russian
Default : Да
Forced : Нет
Свернуть


Скриншоты:


Изображение


Изображение


Изображение


Свернуть
Не в сети
Профиль  
 Добавлено: 2012-10-18 14:25 (спустя 2 часа 17 минут)
Стаж: 4 года 9 месяцев
Сообщений: 1
ХРЕНЬ полная!!!!!!!!!!!!!!!!!!!!!!
Не в сети
Профиль  
 Добавлено: 2012-10-18 16:11 (спустя 1 час 46 минут)
Стаж: 6 лет 9 месяцев
Сообщений: 4
Да хрень
Не в сети
Профиль  
 Добавлено: 2012-11-04 01:46 (спустя 16 дней)
Аватара пользователя
Стаж: 8 лет 11 месяцев
Сообщений: 11
под дурью какой-нибудь будет прикольно, наверное это смотреть :ps_ih:
Не в сети
Профиль  
Начать новую темуОтветить на тему  [ Сообщений: 4 ] 
Вы не можете начинать темы
Вы не можете отвечать на сообщения
Вы не можете редактировать свои сообщения
Вы не можете удалять свои сообщения