Правила форума

  • В этом разделе создание новых тем Запрещено.
  • Для создания новых тем пользуйтесь Корневым разделом DVD и HD фильмы.
Начать новую темуОтветить на тему  [ Сообщений: 2 ] 
Торрент файл
Размер: 7.94 GB • Зарегистрирован: 3 года 7 месяцев • Статус: Проверено
Скачан: 26 раз • Желающих скачать: 0 • Поблагодарили: 16 раз
 Раздают: 0  |  0 KB/s  ]   Качают: 0  |  0 KB/s  ] 
 Полного источника не было 1 год 5 месяцев 
Сообщения
 Добавлено: 2013-10-10 17:29
Модератор релиз-группы
Аватара пользователя
Стаж: 7 лет 8 месяцев
Возраст: 29
Сообщений: 9789
Спасибок: 23729
Лайков: 103
Изображение

Мой ангел-хранитель
My Sister's Keeper


Год выпуска: 2009
Страна: США
Жанр: Драма
Продолжительность:
Перевод: Профессиональный (многоголосый, закадровый)
Режиссер: Ник Кассаветис
Сценарий: Джереми Левин, Ник Кассаветис, Джоди Пиколт
Продюсер: Скотт Голдман, Марк Джонсон, Чак Пачеко, Тоби Эммерих, Стивен Позен
Оператор: Калеб Дешанель
Композитор: Аарон Зигман
В ролях: Кэмерон Диаз, Эбигейл Бреслин, София Васильева, Алек Болдуин, Джейсон Патрик, Эван Эллингсон, Хезер Уолкист, Джоан Кьюсак, Томас Деккер, Уолтер Рэни, Николь Мари Ленц, Пол Батлер
Бюджет: $30 000 000
Сборы в мире: $95 645 067
Мировая премьера: 26 июня 2009
Релиз на DVD: 1 декабря 2009, «Юниверсал Пикчерс Рус»
Описание: Адвокат сталкивается с необычным делом: 11-летняя девочка подает в суд на своих родителей, узнав о том, что она была зачата «в пробирке» лишь для того, чтобы поддерживать жизнь своей сестры, больной лейкемией.
Изображение
MPAA: PG-13 - Детям до 13 лет просмотр не желателен
Раздача группы: Изображение
Качество: BDRip, 1080p
Формат: MKV
Видео: AVC; 23,976 fps
Аудио №1: русский; AC3; 6 ch - Многоголосый (R5)
Аудио №2: русский; AC3; 2 ch - Многоголосый (ТВ3)
Аудио №3: AC3; 6 ch

Субтитры №1: русские
Субтитры №2: английские

mediainfo
Format : Matroska
File size : 7.94 GiB
Duration : 1h 49mn
Overall bit rate : 10.4 Mbps
Encoded date : UTC 2013-04-13 06:37:32
Writing application : mkvmerge v6.1.0 ('Old Devil') built on Mar 2 2013 14:32:37
Writing library : libebml v1.3.0 + libmatroska v1.4.0

Video
ID : 1
Format : AVC
Format/Info : Advanced Video Codec
Format profile : High@L4.1
Format settings, CABAC : Yes
Format settings, ReFrames : 5 frames
Muxing mode : Container profile=Unknown@4.1
Codec ID : V_MPEG4/ISO/AVC
Duration : 1h 49mn
Bit rate : 9 325 Kbps
Width : 1 920 pixels
Height : 800 pixels
Display aspect ratio : 2.40:1
Frame rate : 23.976 fps
Color space : YUV
Chroma subsampling : 4:2:0
Bit depth : 8 bits
Scan type : Progressive
Bits/(Pixel*Frame) : 0.253
Stream size : 6.95 GiB (88%)
Writing library : x264 core 130 r2273 b3065e6
Encoding settings : cabac=1 / ref=5 / deblock=1:-1:-1 / analyse=0x3:0x133 / me=umh / subme=10 / psy=1 / psy_rd=1.00:0.00 / mixed_ref=1 / me_range=48 / chroma_me=1 / trellis=2 / 8x8dct=1 / cqm=0 / deadzone=21,11 / fast_pskip=0 / chroma_qp_offset=-2 / threads=6 / lookahead_threads=1 / sliced_threads=0 / nr=0 / decimate=1 / interlaced=0 / bluray_compat=0 / constrained_intra=0 / bframes=10 / b_pyramid=2 / b_adapt=2 / b_bias=30 / direct=1 / weightb=1 / open_gop=0 / weightp=2 / keyint=240 / keyint_min=23 / scenecut=40 / intra_refresh=0 / rc_lookahead=40 / rc=2pass / mbtree=0 / bitrate=9325 / ratetol=2.0 / qcomp=1.00 / qpmin=0 / qpmax=51 / qpstep=4 / cplxblur=20.0 / qblur=0.5 / vbv_maxrate=40000 / vbv_bufsize=48000 / nal_hrd=vbr / ip_ratio=1.40 / pb_ratio=1.30 / aq=1:1.00
Color primaries : BT.709-5, BT.1361, IEC 61966-2-4, SMPTE RP177
Transfer characteristics : BT.709-5, BT.1361
Matrix coefficients : BT.709-5, BT.1361, IEC 61966-2-4 709, SMPTE RP177

Audio #1
ID : 2
Format : AC-3
Format/Info : Audio Coding 3
Mode extension : CM (complete main)
Codec ID : A_AC3
Duration : 1h 49mn
Bit rate mode : Constant
Bit rate : 448 Kbps
Channel(s) : 6 channels
Channel positions : Front: L C R, Side: L R, LFE
Sampling rate : 48.0 KHz
Bit depth : 16 bits
Video delay : 23ms
Stream size : 350 MiB (4%)
Title : MVO - R5
Language : Russian

Audio #2
ID : 3
Format : AC-3
Format/Info : Audio Coding 3
Mode extension : CM (complete main)
Codec ID : A_AC3
Duration : 1h 49mn
Bit rate mode : Constant
Bit rate : 192 Kbps
Channel(s) : 2 channels
Channel positions : Front: L R
Sampling rate : 48.0 KHz
Bit depth : 16 bits
Stream size : 150 MiB (2%)
Title : MVO - TV3
Language : Russian

Audio #3
ID : 4
Format : AC-3
Format/Info : Audio Coding 3
Mode extension : CM (complete main)
Codec ID : A_AC3
Duration : 1h 49mn
Bit rate mode : Constant
Bit rate : 448 Kbps
Channel(s) : 6 channels
Channel positions : Front: L C R, Side: L R, LFE
Sampling rate : 48.0 KHz
Bit depth : 16 bits
Stream size : 350 MiB (4%)

Text #1
ID : 5
Format : UTF-8
Codec ID : S_TEXT/UTF8
Codec ID/Info : UTF-8 Plain Text
Language : Russian

Text #2
ID : 6
Format : UTF-8
Codec ID : S_TEXT/UTF8
Codec ID/Info : UTF-8 Plain Text

Menu
00:00:00.000 : en:00:00:00.000
00:02:47.332 : en:00:02:47.332
00:06:10.536 : en:00:06:10.536
00:09:02.041 : en:00:09:02.041
00:13:59.337 : en:00:13:59.337
00:18:38.534 : en:00:18:38.534
00:23:32.911 : en:00:23:32.911
00:29:16.628 : en:00:29:16.628
00:32:44.753 : en:00:32:44.753
00:37:14.398 : en:00:37:14.398
00:41:55.221 : en:00:41:55.221
00:46:52.141 : en:00:46:52.141
00:50:43.706 : en:00:50:43.706
00:54:19.755 : en:00:54:19.755
00:58:24.333 : en:00:58:24.333
01:02:27.492 : en:01:02:27.492
01:05:54.867 : en:01:05:54.867
01:09:26.494 : en:01:09:26.494
01:13:38.413 : en:01:13:38.413
01:17:42.740 : en:01:17:42.740
01:20:41.837 : en:01:20:41.837
01:24:25.225 : en:01:24:25.225
01:29:23.106 : en:01:29:23.106
01:33:05.246 : en:01:33:05.246
01:37:02.858 : en:01:37:02.858
01:40:56.050 : en:01:40:56.050
01:43:26.199 : en:01:43:26.199
Свернуть
Скриншоты

Изображение
Изображение
Изображение
Изображение
Изображение
Изображение
Изображение
Изображение
Свернуть
Не в сети
Профиль  
 Добавлено: 2013-11-09 11:48 (спустя 29 дней)
Стаж: 6 лет 4 месяца
Сообщений: 9
Лайков: 2
Раздайте плиизз!! :ny_tik:


Тема поднималась пользователем volkov2009 2013-11-09 11:48.
Не в сети
Профиль  
Начать новую темуОтветить на тему  [ Сообщений: 2 ] 
Вы не можете начинать темы
Вы не можете отвечать на сообщения
Вы не можете редактировать свои сообщения
Вы не можете удалять свои сообщения