Правила форума

  • В этом разделе создание новых тем Запрещено.
  • Для создания новых тем пользуйтесь Корневым разделом DVD и HD фильмы.
Начать новую темуОтветить на тему  [ Сообщений: 2 ] 
Торрент файл
Размер: 4.91 GB • Зарегистрирован: 5 лет 2 месяца • Статус: Проверено
Скачан: 225 раз • Желающих скачать: 0 • Поблагодарили: 30 раз
 Раздают: 0  |  0 KB/s  ]   Качают: 0  |  0 KB/s  ] 
 Полного источника не было 2 года 10 месяцев 
Сообщения
 Добавлено: 2011-09-19 08:23
Аватара пользователя
Стаж: 8 лет 3 месяца
Возраст: 43
Сообщений: 3290
Спасибок: 21012
Лайков: 3
Мой парень из зоопарка / Zookeeper

Изображение

Год выпуска: 2011
Страна: США
Слоган: «Добро пожаловать в его джунгли»

Жанр: мелодрама, комедия, семейный
Продолжительность: 01:41:53
Перевод: Профессиональный (полное дублирование)

Режиссер: Фрэнк Корачи / Frank Coraci
Сценарий: Ник Бакай / Nick Bakay, Рок Рубен / Rock Reuben, Кевин Джеймс / Kevin James, Джей Шерик / Jay Scherick, Дэвид Ронн / David Ronn
Продюсер: Тодд Гарнер / Todd Garner, Джек Джиррапуто / Jack Giarraputo, Кевин Джеймс / Kevin James, Адам Сэндлер / Adam Sandler, Бэрри Бернарди / Barry Bernardi
Оператор: Майкл Баррет / Michael Barrett
Композитор: Руперт Грегсон-Уильямс / Rupert Gregson-Williams

Изображение
Кевин Джеймс (Griffin Keyes), Розарио Доусон (Kate), Лесли Бибб (Stephanie), Кен Жонг (Venom), Донни Уолберг (Shane), Джо Роган (Gale), Нат Факсон (Dave), Стеффиана Де Ла Круз (Robin), Ник Бакай (Franky), Джеки Сэндлер (TGIF Waitress), Николас Туртурро (Manny), Томас Готтшалк (Jurgen)
Дублёры: Алексей Колган (Griffin Keyes), Елена Ивасишина (Kate), Татьяна Шитова (Stephanie), Диомид Виноградов (Venom; Frog), Александр Носков (Shane), Александр Коврижных (Dave), Сергей Гармаш (Bernie the Gorilla), Тимур Родригез (Donald the Monkey), Владимир Антоник (Joe the Lion), Татьяна Васильева (Janet the Lioness), Илья Бледный (Barry the Elephant), Юрий Стоянов (Jerome the Bear)
Бюджет: $80 000 000
Сборы в США: $78 767 401
Сборы в России: $4 967 773
Сборы в мире: $147 967 401

Мировая премьера: 6 июля 2011
Релиз на DVD: 23 августа 2011, «Columbia/Sony»
Релиз на Blu-ray: 6 сентября 2011, «Columbia/Sony»
Изображение
Звери пытаются научить незадачливого смотрителя зоопарка методам обольщения противоположного пола для того, чтобы тот, наконец, завоевал сердце любимой девушки.
Изображение
MPAA: Изображение - Рекомендуется присутствие родителей
Релиз: Изображение Раздача: Изображение
Изображение
Качество: BDRip
Формат: Matroska
Видео: AVC; 1280x534 (2.35:1); 4488 Kbps; 23,976 fps; 0,274 bpp
Аудио №1: Russian; AC3; 384 Kbps; CBR; 6 ch
Аудио №2: Ukrainian; AC3; 384 Kbps; CBR; 6 ch
Аудио №3: English; DTS; 1509 Kbps; CBR; 6 ch; 24 bit
Субтитры №1: Russian
Субтитры №2: English
Изображение
"MediaInfo"

Общее
Уникальный идентификатор : 170421878727801478228831518807221063571 (0x80360F585CE49F9EBCA5075EF547CF93)
Полное имя : D:\VIDEO-FILMI\BDRip\Zookeeper.2011.D.BDRip.720p.mkv
Формат : Matroska
Версия формата : Version 2
Размер файла : 4,91 Гбайт
Продолжительность : 1 ч. 41 м.
Общий поток : 6904 Кбит/сек
Название фильма : Мой парень из зоопарка / Zookeeper (2011)
Дата кодирования : UTC 2011-09-19 02:49:21
Программа кодирования : mkvmerge v4.9.1 ('Ich will') сборка от Jul 11 2011 23:53:15
Библиотека кодирования : libebml v1.2.1 + libmatroska v1.1.1

Видео
Идентификатор : 1
Формат : AVC
Формат/Информация : Advanced Video Codec
Профиль формата : High@L4.1
Параметр CABAC формата : Да
Параметр ReFrames формата : 12 кадров
Идентификатор кодека : V_MPEG4/ISO/AVC
Продолжительность : 1 ч. 41 м.
Битрейт : 4624 Кбит/сек
Ширина : 1280 пикселей
Высота : 534 пикселя
Соотношение сторон : 2,40:1
Частота кадров : 23,976 кадра/сек
Цветовое пространство : YUV
Субдискретизация насыщенности : 4:2:0
Битовая глубина : 8 бит
Тип развёртки : Прогрессивная
Бит/(Пиксели*Кадры) : 0.282
Размер потока : 3,19 Гбайт (65%)
Заголовок : Zookeeper.2011.BluRay.720p.DTS.x264-CHD
Библиотека кодирования : x264 core 102 r1666 d058f37
Настройки программы : cabac=1 / ref=12 / deblock=1:-3:-3 / analyse=0x3:0x113 / me=umh / subme=10 / psy=1 / psy_rd=1.05:0.10 / mixed_ref=1 / me_range=32 / chroma_me=1 / trellis=2 / 8x8dct=1 / cqm=2 / deadzone=21,11 / fast_pskip=0 / chroma_qp_offset=-2 / threads=6 / sliced_threads=0 / nr=0 / decimate=1 / interlaced=0 / constrained_intra=0 / bframes=6 / b_pyramid=2 / b_adapt=2 / b_bias=0 / direct=3 / weightb=1 / open_gop=0 / weightp=2 / keyint=250 / keyint_min=25 / scenecut=40 / intra_refresh=0 / rc_lookahead=40 / rc=2pass / mbtree=1 / bitrate=4624 / ratetol=1.0 / qcomp=0.60 / qpmin=10 / qpmax=51 / qpstep=4 / cplxblur=20.0 / qblur=0.5 / vbv_maxrate=50000 / vbv_bufsize=50000 / ip_ratio=1.40 / aq=1:0.80 / nal_hrd=none
Язык : English

Аудио #1
Идентификатор : 2
Формат : AC-3
Формат/Информация : Audio Coding 3
Расширение режима : CM (complete main)
Идентификатор кодека : A_AC3
Продолжительность : 1 ч. 41 м.
Вид битрейта : Постоянный
Битрейт : 384 Кбит/сек
Каналы : 6 каналов
Расположение каналов : Front: L C R, Side: L R, LFE
Частота : 48,0 КГц
Битовая глубина : 16 бит
Метод сжатия : С потерями
Задержка видео : 1 с. 750 мс.
Размер потока : 280 Мбайт (6%)
Заголовок : AC3 5.1 @ 384 kb/s [Russian DUB R5]
Язык : Russian

Аудио #2
Идентификатор : 3
Формат : AC-3
Формат/Информация : Audio Coding 3
Расширение режима : CM (complete main)
Идентификатор кодека : A_AC3
Продолжительность : 1 ч. 41 м.
Вид битрейта : Постоянный
Битрейт : 384 Кбит/сек
Каналы : 6 каналов
Расположение каналов : Front: L C R, Side: L R, LFE
Частота : 48,0 КГц
Битовая глубина : 16 бит
Метод сжатия : С потерями
Задержка видео : 1 с. 750 мс.
Размер потока : 280 Мбайт (6%)
Заголовок : AC3 5.1 @ 384 kb/s [Ukrainian DUB R5]
Язык : Ukrainian

Аудио #3
Идентификатор : 4
Формат : DTS
Формат/Информация : Digital Theater Systems
Идентификатор кодека : A_DTS
Продолжительность : 1 ч. 41 м.
Вид битрейта : Постоянный
Битрейт : 1510 Кбит/сек
Каналы : 6 каналов
Расположение каналов : Front: L C R, Side: L R, LFE
Частота : 48,0 КГц
Битовая глубина : 24 бит
Метод сжатия : С потерями
Размер потока : 1,07 Гбайт (22%)
Заголовок : DTS 5.1 @ 1510 kb/s [English]
Язык : English

Текст #1
Идентификатор : 5
Формат : UTF-8
Идентификатор кодека : S_TEXT/UTF8
Идентификатор кодека/Информация : UTF-8 Plain Text
Заголовок : Russian [Forced]
Язык : Russian

Текст #2
Идентификатор : 6
Формат : UTF-8
Идентификатор кодека : S_TEXT/UTF8
Идентификатор кодека/Информация : UTF-8 Plain Text
Заголовок : English
Язык : English


Свернуть
"Скриншоты"

Изображение
Изображение
Изображение
Изображение
Изображение
Изображение
Изображение
Изображение
Изображение

Свернуть

Изображение
_________________
Изображение
Не в сети
Профиль  
 Добавлено: 2011-09-19 16:31 (спустя 8 часов)
Кинокомментатор
Аватара пользователя
Стаж: 9 лет 1 месяц
Сообщений: 1332
Лайков: 54
ну средненькое кинцо) тупняка та ещё канешн) животные разговаривают) но в принципе весело и задорно) и актрисы хороши) и Гармаш в роли гориллы) и гл актёр тоже не плох) в общем смотреть можно:) учитывая всё 6/10 :)
_________________
Я ВКонтакте
Не в сети
Профиль  
Начать новую темуОтветить на тему  [ Сообщений: 2 ] 
Вы не можете начинать темы
Вы не можете отвечать на сообщения
Вы не можете редактировать свои сообщения
Вы не можете удалять свои сообщения