Правила форума

  • В этом разделе создание новых тем Запрещено.
  • Для создания новых тем пользуйтесь Корневым разделом DVD и HD фильмы.
Начать новую темуОтветить на тему  [ Сообщений: 3 ] 
Торрент файл
Размер: 13.96 GB • Зарегистрирован: 3 года 8 месяцев • Статус: Проверено
Скачан: 194 раза • Желающих скачать: 0 • Поблагодарили: 61 раз
 Раздают: 1  |  0 KB/s  ]   Качают: 0  |  0 KB/s  ] 
Сообщения
 Добавлено: 2013-04-03 00:23
Модератор
Аватара пользователя
Стаж: 8 лет 7 месяцев
Сообщений: 4965
Спасибок: 110254
Лайков: 18
Изображение

Мой парень – псих / Silver Linings Playbook


Год выпуска: 2012
Страна: США
Слоган:
«На каждого психа найдётся своя чокнутая»


Жанр: драма, мелодрама, комедия
Продолжительность: 02:02:05
Перевод: Профессиональный (многоголосый, закадровый)
Субтитры: Russian, English
Режиссер: Дэвид О. Расселл / David O. Russell
Сценарий: Дэвид О. Расселл / David O. Russell
Продюсер: Брюс Коэн / Bruce Cohen, Донна Джильотти / Donna Gigliotti, Рени Уитт / Renee Witt, Брэдли Купер / Bradley Cooper, Джон Гордон / Jonathan Gordon
Оператор: Масанобу Такаянаги / Masanobu Takayanagi
Композитор: Дэнни Элфман / Danny Elfman

В ролях: Брэдли Купер (Pat), Дженнифер Лоуренс (Tiffany), Роберт Де Ниро (Pat Sr.), Джеки Уивер (Dolores), Крис Такер (Danny), Анупам Кхер (Dr. Cliff Patel), Джон Ортиз (Ronnie), Ши Уигхэм (Jake), Джулия Стайлз (Veronica), Пол Херман (Randy), Дэш Майок (Officer Keogh), Мэттью Расселл (Ricky D'Angelo)
Бюджет: $21 000 000
Сборы в США: $128 712 563
Сборы в России: $1 690 388
Сборы в мире: $222 723 009

Мировая премьера: 25 января 2012
Релиз на DVD: 31 января 2013, «New Dream media», «Новый Диск»
Релиз на Blu-ray: 25 апреля 2013, «Новый Диск», «New Dream media»
Описание:Бывший школьный учитель Пэт, проведя в психиатрической больнице восемь месяцев, возвращается в родительский дом. Он одержим мыслью помириться с бывшей супругой, к которой не имеет права приближаться по решению суда. Но знакомство с эксцентричной девушкой Тиффани зажигает в Пэте луч надежды...
Изображение 8.0/10 (149 107 users) Изображение 7.454 (37 029)
MPAA: Изображение - Лицам до 17 лет обязательно присутствие взрослого
Релиз группы: Изображение
Раздача группы: Изображение
Качество: BDRip 1080р
Формат: MKV

Видео: 1920 x 800, 23.976 fps, x264 L4.1 High @ 14.5 Mbps
Аудио №1: русский; AC3; 448 Kbps; CBR; 6 ch; 16 bit
Аудио №2: английский; DTS; 1510 Kbps; CBR; 6 ch; 24 bit
"NFO"
Формат : Matroska
Версия формата : Version 2
Размер файла : 14,0 Гбайт
Продолжительность : 2 ч. 2 м.
Общий поток : 16,4 Мбит/сек
Название фильма : BLUEBIRD
Дата кодирования : UTC 2013-04-02 20:14:25
Программа кодирования : mkvmerge v5.8.0 ('No Sleep / Pillow') built on Sep 2 2012 15:37:04
Библиотека кодирования : libebml v1.2.3 + libmatroska v1.3.0

Видео
Идентификатор : 1
Формат : AVC
Формат/Информация : Advanced Video Codec
Профиль формата : High@L4.1
Параметр CABAC формата : Да
Параметр ReFrames формата : 5 кадров
Идентификатор кодека : V_MPEG4/ISO/AVC
Продолжительность : 2 ч. 2 м.
Битрейт : 14,4 Мбит/сек
Ширина : 1920 пикселей
Высота : 800 пикселей
Соотношение сторон : 2,40:1
Частота кадров : 23,976 кадра/сек
Цветовое пространство : YUV
Субдискретизация насыщенности : 4:2:0
Битовая глубина : 8 бит
Тип развёртки : Прогрессивная
Бит/(Пиксели*Кадры) : 0.392
Размер потока : 12,0 Гбайт (86%)
Библиотека кодирования : x264 core 130 r2274+704+40 24c804d tMod+MixAQ [8-bit@4:2:0 X86_64]
Настройки программы : cabac=1 / ref=5 / deblock=1:-3:-3 / analyse=0x3:0x113 / me=umh / subme=11 / psy=1 / fade_compensate=0.00 / psy_rd=1.10:0.00 / mixed_ref=1 / me_range=48 / chroma_me=1 / trellis=2 / 8x8dct=1 / cqm=0 / deadzone=21,11 / fast_pskip=0 / chroma_qp_offset=-2 / threads=18 / lookahead_threads=3 / sliced_threads=0 / nr=0 / decimate=0 / interlaced=0 / bluray_compat=0 / constrained_intra=0 / fgo=0 / bframes=8 / b_pyramid=2 / b_adapt=2 / b_bias=0 / direct=3 / weightb=1 / open_gop=0 / weightp=2 / keyint=240 / keyint_min=24 / scenecut=40 / intra_refresh=0 / rc_lookahead=240 / rc=2pass / mbtree=1 / bitrate=14440 / ratetol=1.0 / qcomp=0.70 / qpmin=0 / qpmax=69 / qpstep=4 / cplxblur=20.0 / qblur=0.5 / ip_ratio=1.10 / aq=4:0.80 / aq-sensitivity=10.00 / aq-ifactor=1.00 / aq-pfactor=1.00 / aq-bfactor=1.00 / aq2=0
Язык : English
Default : Да
Forced : Нет

Аудио #1
Идентификатор : 2
Формат : AC-3
Формат/Информация : Audio Coding 3
Расширение режима : CM (complete main)
Параметр Endianness формата : Big
Идентификатор кодека : A_AC3
Продолжительность : 2 ч. 2 м.
Вид битрейта : Постоянный
Битрейт : 448 Кбит/сек
Каналы : 6 каналов
Расположение каналов : Front: L C R, Side: L R, LFE
Частота : 48,0 КГц
Битовая глубина : 16 бит
Метод сжатия : С потерями
Размер потока : 391 Мбайт (3%)
Заголовок : MVO
Язык : Russian
Default : Да
Forced : Нет

Аудио #2
Идентификатор : 3
Формат : DTS
Формат/Информация : Digital Theater Systems
Идентификатор кодека : A_DTS
Продолжительность : 2 ч. 2 м.
Вид битрейта : Постоянный
Битрейт : 1510 Кбит/сек
Каналы : 6 каналов
Расположение каналов : Front: L C R, Side: L R, LFE
Частота : 48,0 КГц
Битовая глубина : 24 бит
Метод сжатия : С потерями
Размер потока : 1,29 Гбайт (9%)
Язык : English
Default : Нет
Forced : Нет

Текст #1
Идентификатор : 4
Формат : UTF-8
Идентификатор кодека : S_TEXT/UTF8
Идентификатор кодека/Информация : UTF-8 Plain Text
Язык : Russian
Default : Нет
Forced : Нет

Текст #2
Идентификатор : 5
Формат : UTF-8
Идентификатор кодека : S_TEXT/UTF8
Идентификатор кодека/Информация : UTF-8 Plain Text
Заголовок : full
Язык : English
Default : Нет
Forced : Нет

Текст #3
Идентификатор : 6
Формат : UTF-8
Идентификатор кодека : S_TEXT/UTF8
Идентификатор кодека/Информация : UTF-8 Plain Text
Заголовок : sdh
Язык : English
Default : Нет
Forced : Нет

Меню
00:00:00.000 : en:00:00:00.000
00:10:18.535 : en:00:10:18.535
00:21:11.979 : en:00:21:11.979
00:29:25.847 : en:00:29:25.847
00:35:20.869 : en:00:35:20.869
00:52:22.014 : en:00:52:22.014
01:03:47.282 : en:01:03:47.282
01:13:18.728 : en:01:13:18.728
01:21:50.405 : en:01:21:50.405
01:36:58.104 : en:01:36:58.104
01:43:52.435 : en:01:43:52.435
01:56:08.795 : en:01:56:08.795
Свернуть
"Знаете ли Вы, что..."
  • Главную роль мог получить Марк Уолберг.
  • Энн Хэтэуэй первоначально рассматривалась в пару Брэдли Куперу, но она покинула проект из-за несогласованности расписаний съемок.
  • Рэйчел МакАдамс, Оливия Уайлд, Элизабет Бэнкс, Блейк Лайвли, Руни Мара, Кирстен Данст и Андреа Райзборо рассматривались на главную женскую роль, которая досталась Дженнифер Лоуренс.
  • Анджелина Джоли рассматривалась на роль в фильме.
  • Брэдли Купер ранее пробовался на роль сына Роберта Де Ниро в фильме «Все путем» (2009), но не получил эту роль.
  • Это первый после «Деньги решают все» (1997) фильм не из серии «Час пик», в котором снялся Крис Такер.
  • По вывеске кинотеатра можно заметить, что в нем показывают «Полуночный экспресс» (2008) с Брэдли Купером.
  • Когда Пэт и Тиффани проходят около кинотеатра, на нём можно заметить вывеску «Midnight Meat Train». Этот фильм действительно существует, называется он «Полуночный экспресс» (2008), и в нём тоже играет Брэдли Купер.
  • Упомянутые в фильме игры Eagles проходят в 2008 году. Однако можно заметить болельщика в футболке с именем Nnamdi Asomugha, которого не было в команде до 2011 года.
  • Когда Пат читает сообщение от Никки в танцевальной студии, кулон у него на шее висит спереди. Когда он уходит и камера меняет угол, он смещен назад.
  • Игры Eagles, упомянутые в фильме, проходили во время сезона 2008 года, но они показаны не в том порядке, в котором они проходили на самом деле.
  • Когда Пат и Тиффани обсуждают ответное письмо Никки в квартире Тиффани, его кулон несколько раз меняет свое положение.
  • Когда Пат возвращается домой в начале фильма, он и его отец стоят и разговаривают, а его ожерелье исчезает во время смены кадров.
  • Закусочная Llanerch находится в Аппер Дарби (штат Пенсильвания), примерно в 10 милях от их домов в Ридли-Парке. И как-то маловероятно, чтобы Пат и Тиффани пошли туда пешком на свое свидание.
  • В начале фильма, во время сцены у стадиона Lincoln Financial Field, машина, в которой едут актеры, движется на юг по I-95, когда они едут со стороны Балтимора. И, соответственно, стадион должен был появиться в кадре с противоположной стороны.
  • Когда Тиффани говорит Пату, что у нее письмо от Никки, в момент, когда она протягивает конверт, можно заметить, что он пустой. Но после того как конверт открыли, Пат читает письмо, которое якобы было внутри него.
Свернуть

"Скриншоты"

Изображение

Изображение

Изображение

Свернуть
_________________
Изображение Изображение Изображение
Билайн / АДС добавляйте ретрекер, чтобы качать на скорости 100 Мбит/с
Cкрытый текст
Изображение
Свернуть
Не в сети
Профиль  
 Добавлено: 2013-04-24 10:58 (спустя 21 день)
Аватара пользователя
Стаж: 8 лет 3 месяца
Возраст: 41
Сообщений: 405
Спасибок: 17
Лайков: 48
Мне очень понравилось. А девушку еще со времен "Голодных игр" запомнил.
Весьма нестандартные отношения двух парий. Играют отлично
Не в сети
Профиль  
 Добавлено: 2013-05-31 20:41 (спустя 1 месяц 7 дней)
Стаж: 7 лет 2 месяца
Сообщений: 81
отличный фильмец
Не в сети
Профиль  
Начать новую темуОтветить на тему  [ Сообщений: 3 ] 
Вы не можете начинать темы
Вы не можете отвечать на сообщения
Вы не можете редактировать свои сообщения
Вы не можете удалять свои сообщения