Правила форума

  • В этом разделе создание новых тем Запрещено.
  • Для создания новых тем пользуйтесь Корневым разделом DVD и HD фильмы.
Начать новую темуОтветить на тему  [ Сообщений: 2 ] 
Торрент файл
Размер: 6.03 GB • Зарегистрирован: 4 года 3 месяца • Статус: Проверено
Скачан: 14 раз • Желающих скачать: 0 • Поблагодарили: 7 раз
 Раздают: 0  |  0 KB/s  ]   Качают: 0  |  0 KB/s  ] 
 Полного источника не было 2 года 7 месяцев 
Сообщения
 Добавлено: 2012-08-26 22:05
Модератор
Аватара пользователя
Стаж: 8 лет 1 месяц
Сообщений: 1991
Спасибок: 129867
Лайков: 20
Мой самый страшный кошмар / Mon pire cauchemar


«Противоположности притягиваются»



Изображение
Год выпуска: 2011
Страна: Изображение Франция, Изображение Бельгия
Жанр: мелодрама, комедия
Продолжительность:
01:39:40

Перевод: Профессиональный (многоголосый, закадровый)

Режиссер: Анн Фонтен
Сценарий: Анн Фонтен, Николас Мерсье
Продюсер: Филипп Каркассон, Диана Элбаум, Бруно Песери, Патрик Кьюинет, Жером Сейду
Оператор: Жан-Марк Фабр
Композитор: Бруно Куле

В ролях:
Изабель Юппер (Agathe), Бенуа Пульворд (Patrick), Андре Дюссолье (François), Вирджиния Эфира (Julie), Corentin Devroey (Tony), Donatien Suner (Adrien), Орельен Рекуан (Thierry, (в титрах: Aurélien Recoing de la Comédie-Française)), Эрик Бергер (Sébastien, (в титрах: Éric Berger)), Филипп Маньян (Le Principal), Бруно Подалидес (Marc-Henri), Самир Гесми (L'inspecteur DDASS), Françoise Miquelis (La psychologue)

Описание: Она живет со своим мужем и сыном рядом с Люксембургским дворцом. Он живет со своим сыном в задней части фургона. Она возглавляет престижный фонд современного искусства. Он вынужден перебиваться случайной работой. Она регулярно встречается с министром культуры. Он встречается только с бутылками алкоголя. Она любит обсуждать разные идеи. Он любит секс с женщинами с большой грудью.
Они совершенно не имеют ничего общего и не должны были бы даже встречаться. Но их дети становятся неразлучными, и вскоре им самим предстоит понять почему. Столкновение двух разных миров затронет жизни не только их самих, но и всех окружающих.


Изображение: 6.661 (259)
Изображение: 6.00 (456)


Доп. Информация
Бюджет: €11 200 000
Мировая премьера: 27 августа 2011
Релиз на DVD: 22 августа 2012, «Кармен Видео», «ВС трейд»

Свернуть

Релиз группы: Изображение
Качество: BDRip 720p R5

Формат: MKV
Видео: AVC; 1280x692 (1.850); 6598 Kbps; 23,976 fps; 0,311 bpp
Аудио №1: русский; AC3; 384 Kbps; CBR; 6 ch; 16 bit
Аудио №2: французский; DTS; 1510 Kbps; CBR; 6 ch; 24 bit
Субтитры №1: русские
Субтитры №2: немецкие



BDInfo
Общее
Уникальный идентификатор : 211296922396343225640968875808213220928 (0x9EF64E978D48BDDCA61DCB7947A4BE40)
Полное имя : D:\Mon.pire.cauchemar.2011.720р.BluRay.Rus.Fre.HDCLUB-xmad.mkv
Формат : Matroska
Версия формата : Version 2
Размер файла : 6,03 Гбайт
Продолжительность : 1 ч. 39 м.
Общий поток : 8665 Кбит/сек
Название фильма : Mon pire cauchemar (2011) - Release for HDCLUB
Дата кодирования : UTC 2012-08-25 15:57:28
Программа кодирования : mkvmerge v5.6.0 ('Kenya Kane') built on May 27 2012 16:44:04
Библиотека кодирования : libebml v1.2.3 + libmatroska v1.3.0

Видео
Идентификатор : 1
Формат : AVC
Формат/Информация : Advanced Video Codec
Профиль формата : High@L4.1
Параметр CABAC формата : Да
Параметр ReFrames формата : 9 кадров
Идентификатор кодека : V_MPEG4/ISO/AVC
Продолжительность : 1 ч. 39 м.
Битрейт : 6598 Кбит/сек
Ширина : 1280 пикселей
Высота : 692 пикселя
Соотношение сторон : 1,850
Частота кадров : 23,976 кадра/сек
Цветовое пространство : YUV
Субдискретизация насыщенности : 4:2:0
Битовая глубина : 8 бит
Тип развёртки : Прогрессивная
Бит/(Пиксели*Кадры) : 0.311
Размер потока : 4,59 Гбайт (76%)
Заголовок : Release for HDCLUB
Библиотека кодирования : x264 core 125 r2200 999b753
Настройки программы : cabac=1 / ref=9 / deblock=1:-3:-3 / analyse=0x3:0x133 / me=tesa / subme=11 / psy=1 / psy_rd=1.00:0.00 / mixed_ref=1 / me_range=24 / chroma_me=1 / trellis=2 / 8x8dct=1 / cqm=0 / deadzone=21,11 / fast_pskip=1 / chroma_qp_offset=-2 / threads=12 / lookahead_threads=2 / sliced_threads=0 / nr=0 / decimate=1 / interlaced=0 / bluray_compat=0 / constrained_intra=0 / bframes=10 / b_pyramid=2 / b_adapt=2 / b_bias=0 / direct=3 / weightb=1 / open_gop=0 / weightp=2 / keyint=240 / keyint_min=24 / scenecut=40 / intra_refresh=0 / rc=crf / mbtree=0 / crf=17.0 / qcomp=0.60 / qpmin=0 / qpmax=69 / qpstep=4 / ip_ratio=1.40 / pb_ratio=1.30 / aq=1:0.80
Язык : French
Default : Да
Forced : Нет
Основные цвета : BT.709-5, BT.1361, IEC 61966-2-4, SMPTE RP177
Характеристики трансфера : BT.709-5, BT.1361
Коэффициенты матрицы : BT.709-5, BT.1361, IEC 61966-2-4 709, SMPTE RP177

Аудио #1
Идентификатор : 2
Формат : AC-3
Формат/Информация : Audio Coding 3
Расширение режима : CM (complete main)
Идентификатор кодека : A_AC3
Продолжительность : 1 ч. 39 м.
Вид битрейта : Постоянный
Битрейт : 384 Кбит/сек
Каналы : 6 каналов
Расположение каналов : Front: L C R, Side: L R, LFE
Частота : 48,0 КГц
Битовая глубина : 16 бит
Метод сжатия : С потерями
Размер потока : 274 Мбайт (4%)
Заголовок : (AC3 5.1 @ 384 kbps - Многоголосый закадровый, R5)
Язык : Russian
Default : Да
Forced : Нет

Аудио #2
Идентификатор : 3
Формат : DTS
Формат/Информация : Digital Theater Systems
Идентификатор кодека : A_DTS
Продолжительность : 1 ч. 39 м.
Вид битрейта : Постоянный
Битрейт : 1510 Кбит/сек
Каналы : 6 каналов
Расположение каналов : Front: L C R, Side: L R, LFE
Частота : 48,0 КГц
Битовая глубина : 24 бит
Метод сжатия : С потерями
Размер потока : 1,05 Гбайт (17%)
Заголовок : (DTS 5.1 @ 1510 kbps - Original)
Язык : French
Default : Нет
Forced : Нет

Текст #1
Идентификатор : 4
Формат : UTF-8
Идентификатор кодека : S_TEXT/UTF8
Идентификатор кодека/Информация : UTF-8 Plain Text
Заголовок : SRT
Язык : Russian
Default : Нет
Forced : Нет

Текст #2
Идентификатор : 5
Формат : UTF-8
Идентификатор кодека : S_TEXT/UTF8
Идентификатор кодека/Информация : UTF-8 Plain Text
Заголовок : SRT
Язык : German
Default : Нет
Forced : Нет

Меню
00:00:00.000 : :Chapter 01
00:06:45.988 : :Chapter 02
00:16:15.224 : :Chapter 03
00:24:00.605 : :Chapter 04
00:31:03.777 : :Chapter 05
00:37:34.043 : :Chapter 06
00:44:01.472 : :Chapter 07
00:51:36.968 : :Chapter 08
00:57:31.406 : :Chapter 09
01:06:17.932 : :Chapter 10
01:13:57.099 : :Chapter 11
01:22:41.831 : :Chapter 12
01:29:35.870 : :Chapter 13
01:36:10.347 : :Chapter 14
01:39:39.974 : :Chapter 15
Свернуть
Скриншоты
Изображение
Изображение
Изображение
Изображение
Свернуть

_________________
Себе ты можешь не качать, но раздавать другим обязан!
Не в сети
Профиль  
 Добавлено: 2012-08-27 11:26 (спустя 13 часов)
Аватара пользователя
Стаж: 6 лет 6 месяцев
Сообщений: 19963
Спасибок: 721
Лайков: 461
:)
_________________
It was I'am ... :jn_pu_sk:
Медали и Ордена
ИзображениеИзображение
Свернуть
Не в сети
Профиль  
Начать новую темуОтветить на тему  [ Сообщений: 2 ] 
Вы не можете начинать темы
Вы не можете отвечать на сообщения
Вы не можете редактировать свои сообщения
Вы не можете удалять свои сообщения