Правила форума

  • В этом разделе создание новых тем Запрещено.
  • Для создания новых тем пользуйтесь Корневым разделом DVD и HD фильмы.
Начать новую темуОтветить на тему  [ Сообщений: 3 ] 
Торрент файл
Размер: 4.68 GB • Зарегистрирован: 3 года 7 месяцев • Статус: Проверено
Скачан: 29 раз • Желающих скачать: 0 • Поблагодарили: 8 раз
 Раздают: 0  |  0 KB/s  ]   Качают: 0  |  0 KB/s  ] 
 Полного источника не было 2 года 5 месяцев 
Сообщения
 Добавлено: 2013-05-07 08:59
Аватара пользователя
Стаж: 7 лет 2 месяца
Сообщений: 7167
Спасибок: 82018
Лайков: 2438
Мрачные небеса / Dark Skies

Изображение


Год выпуска: 2013
Страна: США
Слоган: «Если тебя выбрали, уже не скрыться»
Жанр: ужасы, фантастика, триллер
Продолжительность: 01:37:08
Перевод: Профессиональный (дубляж) + Оригинальная звуковая дорожка
Субтитры: Английские

Режиссёр: Скотт Чарльз Стюарт
В ролях: Кери Расселл, Джош Хэмилтон, Дакота Гойо, Дж.К. Симмонс, Энни Турман, Майкл Патрик МакГилл, Тревор Ст. Джон, Аливия Элин Линд, Л. Бенет, Джейк Уошберн
Описание: Странные вещи начинают происходить в обычной семье жителей пригорода. Электронные приборы без причины отключаются. Дети повсюду находят мертвых птиц.

В их дом проникают инопланетные существа, которые по какой то причине следят за семьей. Чем больше странных, мистических вещей начинает происходить в доме, тем быстрее становится ясно: загадочные существа, прилетевшие с другой планеты в поисках новой жизни, охотятся на детей, живущих там.


Качество: BDRip 720p
Формат: MKV
Видео кодек: H264 (AVC), DTS
Аудио кодек: AC3 (Dolby Digital)
Видео: 1 280x536, 23.976 fps, 4 933 Kbps
Аудио #1: 48.0 KHz, 6 ch, 448 Kbps [Профессиональный (дубляж)] Лицензия
Аудио #2: 48.0 KHz, 6 ch, 1 510 Kbps [Оригинальная звуковая дорожка]
Субтитры: Английские
Изображение
Скриншоты
Изображение

Изображение

Изображение
Свернуть
MI
General
Unique ID : 208511325115578620728080473817207307304 (0x9CDDD20ADF43D3D9BA029CD8D23C7C28)
Complete name : Мрачные небеса.2013.mkv
Format : Matroska
Format version : Version 4 / Version 2
File size : 4.68 GiB
Duration : 1h 37mn
Overall bit rate : 6 892 Kbps
Encoded date : UTC 2013-05-06 23:39:35
Writing application : mkvmerge v6.2.0 ('Promised Land') built on Apr 28 2013 12:22:01
Writing library : libebml v1.3.0 + libmatroska v1.4.0

Video
ID : 1
Format : AVC
Format/Info : Advanced Video Codec
Format profile : High@L4.1
Format settings, CABAC : Yes
Format settings, ReFrames : 5 frames
Codec ID : V_MPEG4/ISO/AVC
Duration : 1h 37mn
Bit rate : 4 933 Kbps
Width : 1 280 pixels
Height : 536 pixels
Display aspect ratio : 2.40:1
Frame rate : 23.976 fps
Color space : YUV
Chroma subsampling : 4:2:0
Bit depth : 8 bits
Scan type : Progressive
Bits/(Pixel*Frame) : 0.300
Stream size : 3.26 GiB (70%)
Writing library : x264 core 132 r2310 76a5c3a
Encoding settings : cabac=1 / ref=5 / deblock=1:0:0 / analyse=0x3:0x133 / me=umh / subme=7 / psy=1 / psy_rd=1.00:0.00 / mixed_ref=1 / me_range=16 / chroma_me=1 / trellis=1 / 8x8dct=1 / cqm=0 / deadzone=21,11 / fast_pskip=0 / chroma_qp_offset=-2 / threads=12 / lookahead_threads=2 / sliced_threads=0 / nr=0 / decimate=1 / interlaced=0 / bluray_compat=0 / constrained_intra=0 / bframes=3 / b_pyramid=2 / b_adapt=1 / b_bias=0 / direct=1 / weightb=1 / open_gop=0 / weightp=2 / keyint=250 / keyint_min=23 / scenecut=40 / intra_refresh=0 / rc_lookahead=40 / rc=2pass / mbtree=1 / bitrate=4933 / ratetol=1.0 / qcomp=0.60 / qpmin=0 / qpmax=69 / qpstep=4 / cplxblur=20.0 / qblur=0.5 / ip_ratio=1.40 / aq=1:1.00
Language : English
Default : Yes
Forced : No

Audio #1
ID : 2
Format : AC-3
Format/Info : Audio Coding 3
Mode extension : CM (complete main)
Format settings, Endianness : Big
Codec ID : A_AC3
Duration : 1h 37mn
Bit rate mode : Constant
Bit rate : 448 Kbps
Channel(s) : 6 channels
Channel positions : Front: L C R, Side: L R, LFE
Sampling rate : 48.0 KHz
Bit depth : 16 bits
Compression mode : Lossy
Stream size : 311 MiB (7%)
Title : R5
Language : Russian
Default : No
Forced : No

Audio #2
ID : 3
Format : DTS
Format/Info : Digital Theater Systems
Codec ID : A_DTS
Duration : 1h 37mn
Bit rate mode : Constant
Bit rate : 1 510 Kbps
Channel(s) : 6 channels
Channel positions : Front: L C R, Side: L R, LFE
Sampling rate : 48.0 KHz
Bit depth : 24 bits
Compression mode : Lossy
Stream size : 1.02 GiB (22%)
Title : DTS
Language : English
Default : No
Forced : No

Text
ID : 4
Format : UTF-8
Codec ID : S_TEXT/UTF8
Codec ID/Info : UTF-8 Plain Text
Title : English SDH
Language : English
Default : No
Forced : No

Menu
00:00:00.000 : en:00:00:00.000
00:04:21.470 : en:00:04:21.470
00:08:22.210 : en:00:08:22.210
00:14:43.716 : en:00:14:43.716
00:18:52.131 : en:00:18:52.131
00:24:34.014 : en:00:24:34.014
00:29:52.916 : en:00:29:52.916
00:36:28.144 : en:00:36:28.144
00:40:32.430 : en:00:40:32.430
00:45:40.404 : en:00:45:40.404
00:52:14.548 : en:00:52:14.548
00:59:41.244 : en:00:59:41.244
01:05:08.196 : en:01:05:08.196
01:11:59.482 : en:01:11:59.482
01:17:07.248 : en:01:17:07.248
01:22:48.172 : en:01:22:48.172
01:29:07.050 : en:01:29:07.050
01:33:03.244 : en:01:33:03.244


Свернуть
 rotametr нравится это.
Не в сети
Профиль  
 Добавлено: 2013-05-07 11:34 (спустя 2 часа 34 минуты)
Аватара пользователя
Стаж: 8 лет 11 месяцев
Возраст: 27
Сообщений: 52
Лайков: 1
Осилила только начало :-D Кто смотрел больше - отпишитесь, может самое страшное в конце
 Artyr165@ нравится это.
Не в сети
Профиль  
 Добавлено: 2013-05-07 11:39 (спустя 5 минут)
Аватара пользователя
Стаж: 7 лет 2 месяца
Сообщений: 7167
Спасибок: 82018
Лайков: 2438
ПозитиФФчик

Осилил до финала, страшного нет, но посмотреть можно.
 Artyr165@ нравится это.
Не в сети
Профиль  
Начать новую темуОтветить на тему  [ Сообщений: 3 ] 
Вы не можете начинать темы
Вы не можете отвечать на сообщения
Вы не можете редактировать свои сообщения
Вы не можете удалять свои сообщения