Правила форума

  • В этом разделе создание новых тем Запрещено.
  • Для создания новых тем пользуйтесь Корневым разделом DVD и HD фильмы.
Начать новую темуОтветить на тему  [ Сообщений: 5 ] 
Торрент файл
Размер: 2.89 GB • Зарегистрирован: 3 года 8 месяцев • Статус: Проверено
Скачан: 240 раз • Желающих скачать: 0 • Поблагодарили: 48 раз
 Раздают: 3  |  0 KB/s  ]   Качают: 0  |  0 KB/s  ] 
Сообщения
 Добавлено: 2013-03-29 18:19
DVD Release Group
Аватара пользователя
Стаж: 7 лет 1 месяц
Сообщений: 3542
Спасибок: 246684
Лайков: 1016
Мрачные небеса

Dark Skies


Изображение


Год выпуска: 2013
Страна: США
Жанр: Ужасы, фантастика, триллер
Продолжительность: 01:33:01
Перевод: Профессиональный (полное дублирование)
Субтитры: Нет
Режиссер: Скотт Чарльз Стюарт
В ролях: Кери Рассел, Джош Хэмилтон, Дакота Гойо, Кадан Рокетт, Дж.К. Симмонс, Л.Дж. Бенет, Рич Хатчмэн, Минди Крист, Энни Турман, Джейк Уошберн
Описание: Психологический триллер "Мрачные небеса" режиссера Скотта Чарльза Стюарта рассказывает о супружеской паре, проживающей в пригороде, размеренная, спокойная жизнь которых превращается в кошмар.
В доме обычной семьи неожиданно начинают отключаться электронные приборы. Повсюду дети находят мертвых птиц. В доме начинают происходить странные события, которых изо дня в день становится все больше и больше. И чем больше мистических событий происходит в доме, тем очевиднее становится, что, появившиеся в доме инопланетные существа, прилетели с другой планеты и открыли охоту на детей, проживающих в доме.
Изображение
Sample:
http://sendfile.su/785966
Качество: WEB-DL 1080p
Формат: MKV
Видео кодек: H264
Аудио кодек: AC3
Видео: 1920x800 23.98fps 4000Kbps
Аудио: 48kHz 6ch 448kbps
"MediaInfo"
Формат : Matroska
Версия формата : Version 2
Размер файла : 2,89 Гбайт
Продолжительность : 1 ч. 33 м.
Общий поток : 4447 Кбит/сек
Название фильма : Мрачные небеса
Дата кодирования : UTC 2013-03-29 13:00:03
Программа кодирования : mkvmerge v5.2.0 ('I can't explain') built on Dec 18 2011 18:12:03
Библиотека кодирования : libebml v1.2.3 + libmatroska v1.3.0

Видео
Идентификатор : 1
Формат : AVC
Формат/Информация : Advanced Video Codec
Профиль формата : High@L4.0
Параметр CABAC формата : Да
Параметр ReFrames формата : 3 кадра
Идентификатор кодека : V_MPEG4/ISO/AVC
Продолжительность : 1 ч. 33 м.
Битрейт : 4000 Кбит/сек
Ширина : 1920 пикселей
Высота : 800 пикселей
Соотношение сторон : 2,40:1
Частота кадров : 50,000 кадров/сек
Частота кадров в оригинале : 25,000 кадров/сек
Цветовое пространство : YUV
Субдискретизация насыщенности : 4:2:0
Битовая глубина : 8 бит
Тип развёртки : Прогрессивная
Бит/(Пиксели*Кадры) : 0.052
Размер потока : 2,54 Гбайт (88%)
Библиотека кодирования : x264 core 120
Настройки программы : cabac=1 / ref=3 / deblock=1:0:0 / analyse=0x3:0x133 / me=umh / subme=7 / psy=1 / psy_rd=1.00:0.00 / mixed_ref=1 / me_range=32 / chroma_me=1 / trellis=2 / 8x8dct=1 / cqm=0 / deadzone=21,11 / fast_pskip=1 / chroma_qp_offset=-2 / threads=12 / sliced_threads=0 / nr=0 / decimate=1 / interlaced=0 / bluray_compat=0 / constrained_intra=0 / bframes=0 / weightp=0 / keyint=75 / keyint_min=26 / scenecut=40 / intra_refresh=0 / rc_lookahead=50 / rc=2pass / mbtree=0 / bitrate=4000 / ratetol=1.0 / qcomp=0.20 / qpmin=10 / qpmax=51 / qpstep=4 / cplxblur=20.0 / qblur=0.5 / vbv_maxrate=5000 / vbv_bufsize=5000 / nal_hrd=none / ip_ratio=1.40 / aq=1:1.00
Язык : English
Default : Да
Forced : Да
Основные цвета : BT.709-5, BT.1361, IEC 61966-2-4, SMPTE RP177
Характеристики трансфера : BT.709-5, BT.1361
Коэффициенты матрицы : BT.709-5, BT.1361, IEC 61966-2-4 709, SMPTE RP177

Аудио
Идентификатор : 2
Формат : AC-3
Формат/Информация : Audio Coding 3
Расширение режима : CM (complete main)
Идентификатор кодека : A_AC3
Продолжительность : 1 ч. 33 м.
Вид битрейта : Постоянный
Битрейт : 448 Кбит/сек
Каналы : 6 каналов
Расположение каналов : Front: L C R, Side: L R, LFE
Частота : 48,0 КГц
Битовая глубина : 16 бит
Метод сжатия : С потерями
Размер потока : 298 Мбайт (10%)
Заголовок : DD 5.1 @ 448 kbps - Dub, R5
Язык : Russian
Default : Да
Forced : Да
Свернуть

"Скриншоты"
Изображение
Изображение
Изображение
Изображение
Свернуть

Раздача группы:
Изображение
Не в сети
Профиль  
 Добавлено: 2013-04-11 12:57 (спустя 12 дней)
Аватара пользователя
Стаж: 8 лет
Сообщений: 140
Спасибок: 51
кто посмотрел отпишитесь, как фильм?
_________________
Изображение 6 мB/s Изображение 600 kB/s
Изображение
Не в сети
Профиль  
 Добавлено: 2016-05-28 10:13 (спустя 3 года 1 месяц)
Аватара пользователя
Стаж: 8 лет 7 месяцев
Возраст: 55
Сообщений: 264
Лайков: 19
Фильм хороший.
Не в сети
Профиль  
 Добавлено: 2016-06-05 22:37 (спустя 8 дней)
Стаж: 7 лет 5 месяцев
Сообщений: 103
Лайков: 4
страшно)
Не в сети
Профиль  
 Добавлено: 2016-06-07 15:37 (спустя 1 день 17 часов)
Стаж: 3 года 3 месяца
Возраст: 34
Сообщений: 18
Лайков: 1
Страшного мало, но сюжет неплохой. В концовке напрашивается продолжение, надеюсь выйдет.
Не в сети
Профиль  
Начать новую темуОтветить на тему  [ Сообщений: 5 ] 
Вы не можете начинать темы
Вы не можете отвечать на сообщения
Вы не можете редактировать свои сообщения
Вы не можете удалять свои сообщения