Правила форума

  • В этом разделе создание новых тем Запрещено.
  • Для создания новых тем пользуйтесь Корневым разделом DVD и HD фильмы.
Начать новую темуОтветить на тему  [ Сообщений: 3 ] 
Торрент файл
Размер: 8.25 GB • Зарегистрирован: 3 года 6 месяцев • Статус: Проверено
Скачан: 130 раз • Желающих скачать: 0 • Поблагодарили: 27 раз
 Раздают: 0  |  0 KB/s  ]   Качают: 0  |  0 KB/s  ] 
 Полного источника не было 1 год 1 месяц 
Сообщения
 Добавлено: 2013-05-10 14:48
Руководитель релиз-группы
Аватара пользователя
Стаж: 7 лет 4 месяца
Возраст: 31
Сообщений: 3407
Спасибок: 46729
Лайков: 5
Изображение

Мрачные небеса
Dark Skies


Год выпуска: 2013
Страна: США
Слоган: «Если тебя выбрали, уже не скрыться»
Жанр: ужасы, фантастика, триллер
Продолжительность:
Перевод: Профессиональный (полное дублирование) [лицензия]
Режиссер: Скотт Чарльз Стюарт
Сценарий: Скотт Чарльз Стюарт
Продюсер: Джейсон Блум, Боб Вайнштейн, Харви Вайнштейн, Жанетт Брилл, Бэйли Конуэй
Оператор: Дэвид Бойд
Композитор: Джозеф Бишара
В ролях: Кери Рассел, Джош Хэмилтон, Дакота Гойо, Кадан Рокетт, Дж.К. Симмонс, Л.Дж. Бенет, Рич Хатчмэн, Минди Крист, Энни Турман, Джейк Уошберн, Рон Остроу, Том Костильо
Бюджет: $3 500 000
Сборы в США: $17 371 113
Сборы в России: $1 629 399
Сборы в мире: $23 366 021
Описание: Странные вещи начинают происходить в обычной семье жителей пригорода. Электронные приборы без причины отключаются. Дети повсюду находят мертвых птиц.
В их дом проникают инопланетные существа, которые по какой то причине следят за семьей. Чем больше странных, мистических вещей начинает происходить в доме, тем быстрее становится ясно: загадочные существа, прилетевшие с другой планеты в поисках новой жизни, охотятся на детей, живущих там.

Изображение
MPAA: Изображение
Мировая премьера: 21 февраля 2013
Релиз на DVD: 26 марта 2013, «Lizard Cinema Trade»
Релиз: Изображение Раздача группы: Изображение
Качество: BDRip, 1080p
Формат: MKV
Видео: MPEG-4 AVC, 10200 Кбит/с, 1920x800
Аудио №1: Dolby AC3, 6 ch, 448 Kbps Russian
Аудио №2: DTS, 6 ch, 1510 Кбит/с English
Субтитры: английские
mediainfo
Формат : Matroska
Версия формата : Version 2
Размер файла : 8,25 Гбайт
Продолжительность : 1 ч. 37 м.
Общий поток : 12,2 Мбит/сек
Название фильма : IRONCLUB
Дата кодирования : UTC 2013-05-07 09:50:29
Программа кодирования : mkvmerge v5.2.0 ('I can't explain') built on Dec 18 2011 18:12:03
Библиотека кодирования : libebml v1.2.3 + libmatroska v1.3.0

Видео
Идентификатор : 1
Формат : AVC
Формат/Информация : Advanced Video Codec
Профиль формата : High@L4.1
Параметр CABAC формата : Да
Параметр ReFrames формата : 5 кадров
Идентификатор кодека : V_MPEG4/ISO/AVC
Продолжительность : 1 ч. 37 м.
Битрейт : 10,2 Мбит/сек
Ширина : 1920 пикселей
Высота : 800 пикселей
Соотношение сторон : 2,40:1
Частота кадров : 23,976 кадра/сек
Цветовое пространство : YUV
Субдискретизация насыщенности : 4:2:0
Битовая глубина : 8 бит
Тип развёртки : Прогрессивная
Бит/(Пиксели*Кадры) : 0.277
Размер потока : 6,75 Гбайт (82%)
Заголовок : Dark.Skies.2013.1080p.BluRay.DTS.x264-HDWinG
Библиотека кодирования : x264 core 130 r2274+704+40 24c804d tMod+MixAQ [8-bit@4:2:0 X86_64]
Настройки программы : cabac=1 / ref=5 / deblock=1:-3:-3 / analyse=0x3:0x113 / me=umh / subme=11 / psy=1 / fade_compensate=0.00 / psy_rd=1.05:0.00 / mixed_ref=1 / me_range=48 / chroma_me=1 / trellis=2 / 8x8dct=1 / cqm=0 / deadzone=21,11 / fast_pskip=0 / chroma_qp_offset=-2 / threads=36 / lookahead_threads=6 / sliced_threads=0 / nr=0 / decimate=0 / interlaced=0 / bluray_compat=0 / constrained_intra=0 / fgo=0 / bframes=8 / b_pyramid=2 / b_adapt=2 / b_bias=0 / direct=3 / weightb=1 / open_gop=0 / weightp=2 / keyint=240 / keyint_min=24 / scenecut=40 / intra_refresh=0 / rc=2pass / mbtree=0 / bitrate=10200 / ratetol=1.0 / qcomp=0.72 / qpmin=0 / qpmax=69 / qpstep=4 / cplxblur=20.0 / qblur=0.5 / ip_ratio=1.25 / pb_ratio=1.20 / aq=4:0.80 / aq-sensitivity=10.00 / aq-ifactor=1.00 / aq-pfactor=1.00 / aq-bfactor=1.00 / aq2=0
Язык : English

Аудио #1
Идентификатор : 2
Формат : AC-3
Формат/Информация : Audio Coding 3
Расширение режима : CM (complete main)
Идентификатор кодека : A_AC3
Продолжительность : 1 ч. 37 м.
Вид битрейта : Постоянный
Битрейт : 448 Кбит/сек
Каналы : 6 каналов
Расположение каналов : Front: L C R, Side: L R, LFE
Частота : 48,0 КГц
Битовая глубина : 16 бит
Метод сжатия : С потерями
Размер потока : 311 Мбайт (4%)
Заголовок : DD 5.1 @ 448 kbps - Dub, R5
Язык : Russian

Аудио #2
Идентификатор : 3
Формат : DTS
Формат/Информация : Digital Theater Systems
Идентификатор кодека : A_DTS
Продолжительность : 1 ч. 37 м.
Вид битрейта : Постоянный
Битрейт : 1510 Кбит/сек
Каналы : 6 каналов
Расположение каналов : Front: L C R, Side: L R, LFE
Частота : 48,0 КГц
Битовая глубина : 24 бит
Метод сжатия : С потерями
Размер потока : 1,02 Гбайт (12%)
Заголовок : DTS 5.1 @ 1536 kbps
Язык : English

Текст
Идентификатор : 4
Формат : UTF-8
Идентификатор кодека : S_TEXT/UTF8
Идентификатор кодека/Информация : UTF-8 Plain Text
Заголовок : SDH
Язык : English

Меню
00:00:00.000 : en:00:00:00.000
00:04:21.470 : en:00:04:21.470
00:08:22.210 : en:00:08:22.210
00:14:43.716 : en:00:14:43.716
00:18:52.131 : en:00:18:52.131
00:24:34.014 : en:00:24:34.014
00:29:52.916 : en:00:29:52.916
00:36:28.144 : en:00:36:28.144
00:40:32.430 : en:00:40:32.430
00:45:40.404 : en:00:45:40.404
00:52:14.548 : en:00:52:14.548
00:59:41.244 : en:00:59:41.244
01:05:08.196 : en:01:05:08.196
01:11:59.482 : en:01:11:59.482
01:17:07.248 : en:01:17:07.248
01:22:48.172 : en:01:22:48.172
01:29:07.050 : en:01:29:07.050
01:33:03.244 : en:01:33:03.244

Свернуть
Скриншоты

Изображение

Изображение

Изображение

Изображение

Изображение

Изображение
Свернуть
Не в сети
Профиль  
 Добавлено: 2013-05-11 07:31 (спустя 16 часов)
Аватара пользователя
Стаж: 8 лет 11 месяцев
Сообщений: 515
Спасибок: 39
Лайков: 49
Скриншоты просто отпад, что не рожа то инопланетянин. С таким бюджэтом походу инопланетян играли сами же страшные америкосы.
Не в сети
Профиль  
 Добавлено: 2013-05-15 21:14 (спустя 4 дня)
Аватара пользователя
Стаж: 7 лет 5 месяцев
Возраст: 34
Сообщений: 241
Спасибок: 1
Лайков: 2
Ух как страшно полные штаны . :-D ;;-)))
Не в сети
Профиль  
Начать новую темуОтветить на тему  [ Сообщений: 3 ] 
Вы не можете начинать темы
Вы не можете отвечать на сообщения
Вы не можете редактировать свои сообщения
Вы не можете удалять свои сообщения