Правила форума

  • В этом разделе создание новых тем Запрещено.
  • Для создания новых тем пользуйтесь Корневым разделом DVD и HD фильмы.
Начать новую темуОтветить на тему  [ Сообщений: 6 ] 
Торрент файл
Размер: 16.59 GB • Зарегистрирован: 4 года 3 месяца • Статус: Проверено
Скачан: 221 раз • Желающих скачать: 0 • Поблагодарили: 37 раз
 Раздают: 0  |  0 KB/s  ]   Качают: 0  |  0 KB/s  ] 
 Полного источника не было 1 день 16 часов 
Сообщения
 Добавлено: 2012-08-23 00:26
Книголюб
Аватара пользователя
Стаж: 7 лет 2 месяца
Сообщений: 2823
Спасибок: 48830
Лайков: 73
Мстители
The Avengers

Изображение


Год выпуска: 2012
Страна: США
Слоган: «Some assembly required.»
Жанр: фантастика, боевик, триллер
Продолжительность: 02:10:45
Перевод: Профессиональный (дубляж)

Режиссёр: Джосс Уидон
В ролях: Роберт Дауни мл., Крис Эванс, Марк Руффало, Крис Хемсворт, Скарлетт Йоханссон, Джереми Реннер, Том Хиддлстон, Сэмюэл Л. Джексон, Кларк Грегг, Коби Смолдерс
Описание: Локи, сводный брат Тора, возвращается, и в этот раз он не один. Земля на грани порабощения, и только лучшие из лучших могут спасти человечество.

Ник Фьюри, глава международной организации Щ. И. Т., собирает выдающихся поборников справедливости и добра, чтобы отразить атаку. Под предводительством Капитана Америки Железный Человек, Тор, Невероятный Халк, Соколиный глаз и Чёрная Вдова вступают в войну с захватчиком.
Рейтинг MPAA: Рейтинг PG-13 (Дети до 13 лет допускаются на фильм только с родителями)
Мировая премьера: 25 апреля 2012
Изображение 8.310 65 615

Качество: BDRip, 1080p, 3D
Формат: MKV
Видео кодек: MH.264
Аудио кодек: AC3; DTS
Видео: 1920x1080 23.976fps 13.5 Mbps 0.271Bits/Pixel
Аудио 1: AC3; 640 Kbps; CBR; 6 ch Russian
Аудио 2: AC3; 640 Kbps; CBR; 6 chUkrainian
Аудио 3: DTS; 1509 Kbps; CBR; 6 ch; 24 bit English
MediaInfo
General
Unique ID : 220433329549691608560157473970171321762 (0xA5D5EA3E3B315225865F6C6A172E9DA2)
Complete name : K:\Torrent\The.Avengers..mkv
Format : Matroska
Format version : Version 2
File size : 16.6 GiB
Duration : 2h 22mn
Overall bit rate : 16.6 Mbps
Movie name : ПаZиtиFFк@
Encoded date : UTC 2012-08-22 12:15:29
Writing application : mkvmerge v5.7.0 ('The Whirlwind') built on Jul 8 2012 20:08:51
Writing library : libebml v1.2.3 + libmatroska v1.3.0

Video
ID : 1
Format : AVC
Format/Info : Advanced Video Codec
Format profile : High@L5.1
Format settings, CABAC : Yes
Format settings, ReFrames : 2 frames
Codec ID : V_MPEG4/ISO/AVC
Duration : 2h 22mn
Bit rate : 13.5 Mbps
Width : 1 920 pixels
Height : 1 080 pixels
Display aspect ratio : 16:9
Frame rate : 23.976 fps
Color space : YUV
Chroma subsampling : 4:2:0
Bit depth : 8 bits
Scan type : Progressive
Bits/(Pixel*Frame) : 0.271
Stream size : 13.5 GiB (81%)
Title : Мстители / The Avengers (2012) [1080p] BDRip
Writing library : x264 core
Language : English
Default : Yes
Forced : No
Color primaries : BT.709-5, BT.1361, IEC 61966-2-4, SMPTE RP177
Transfer characteristics : BT.709-5, BT.1361
Matrix coefficients : BT.709-5, BT.1361, IEC 61966-2-4 709, SMPTE RP177

Audio #1
ID : 2
Format : AC-3
Format/Info : Audio Coding 3
Mode extension : CM (complete main)
Codec ID : A_AC3
Duration : 2h 22mn
Bit rate mode : Constant
Bit rate : 640 Kbps
Channel(s) : 6 channels
Channel positions : Front: L C R, Side: L R, LFE
Sampling rate : 48.0 KHz
Bit depth : 16 bits
Compression mode : Lossy
Stream size : 654 MiB (4%)
Title : DUB
Language : Russian
Default : Yes
Forced : No

Audio #2
ID : 3
Format : AC-3
Format/Info : Audio Coding 3
Mode extension : CM (complete main)
Codec ID : A_AC3
Duration : 2h 22mn
Bit rate mode : Constant
Bit rate : 640 Kbps
Channel(s) : 6 channels
Channel positions : Front: L C R, Side: L R, LFE
Sampling rate : 48.0 KHz
Bit depth : 16 bits
Compression mode : Lossy
Stream size : 654 MiB (4%)
Title : DUB
Language : Ukrainian
Default : No
Forced : No

Audio #3
ID : 4
Format : DTS
Format/Info : Digital Theater Systems
Codec ID : A_DTS
Duration : 2h 22mn
Bit rate mode : Constant
Bit rate : 1 510 Kbps
Channel(s) : 6 channels
Channel positions : Front: L C R, Side: L R, LFE
Sampling rate : 48.0 KHz
Bit depth : 24 bits
Compression mode : Lossy
Stream size : 1.51 GiB (9%)
Title : Original
Language : English
Default : No
Forced : No

Text #1
ID : 5
Format : PGS
Muxing mode : zlib
Codec ID : S_HDMV/PGS
Codec ID/Info : The same subtitle format used on BDs/HD-DVDs
Language : Russian
Default : Yes
Forced : No

Text #2
ID : 6
Format : PGS
Muxing mode : zlib
Codec ID : S_HDMV/PGS
Codec ID/Info : The same subtitle format used on BDs/HD-DVDs
Language : Ukrainian
Default : No
Forced : No

Text #3
ID : 7
Format : PGS
Muxing mode : zlib
Codec ID : S_HDMV/PGS
Codec ID/Info : The same subtitle format used on BDs/HD-DVDs
Language : English
Default : No
Forced : No

Menu
00:00:00.000 : en:(01)00:00:00:000
00:08:02.315 : en:(02)00:08:02:315
00:11:49.166 : en:(03)00:11:49:166
00:15:18.751 : en:(04)00:15:18:751
00:20:33.482 : en:(05)00:20:33:482
00:23:04.257 : en:(06)00:23:04:257
00:29:39.444 : en:(07)00:29:39:444
00:37:23.991 : en:(08)00:37:23:991
00:42:47.982 : en:(09)00:42:47:982
00:50:22.269 : en:(10)00:50:22:269
01:01:04.661 : en:(11)01:01:04:661
01:14:05.107 : en:(12)01:14:05:107
01:28:01.234 : en:(13)01:28:01:234
01:38:20.561 : en:(14)01:38:20:561
01:45:40.167 : en:(15)01:45:40:167
01:51:15.085 : en:(16)01:51:15:085
01:57:47.769 : en:(17)01:57:47:769
02:04:38.679 : en:(18)02:04:38:679
02:09:39.396 : en:(19)02:09:39:396
02:13:10.691 : en:(20)02:13:10:691
02:22:54.649 : en:(21)02:22:54:649


Свернуть

Скриншоты
Изображение
Изображение
Изображение
Свернуть


Последний раз редактировалось coldun 2012-08-29 02:51, всего редактировалось 1 раз.
Не в сети
Профиль  
 Добавлено: 2012-08-23 10:39 (спустя 10 часов)
Модератор
Аватара пользователя
Стаж: 6 лет 10 месяцев
Возраст: 33
Сообщений: 5908
Спасибок: 61266
Лайков: 3540
нет указания формата 3 дэ.
_________________
ИзображениеИзображение Изображение
Изображение
Не в сети
Профиль  
 Добавлено: 2012-08-23 10:56 (спустя 16 минут)
Модератор
Аватара пользователя
Стаж: 6 лет 10 месяцев
Возраст: 33
Сообщений: 5908
Спасибок: 61266
Лайков: 3540
Вот отличное оформление, возьми, сам немного не успел запостить.


Мстители / The Avengers (Джосс Уидон) [2012, фантастика, боевик, триллер, BDRip, 1080p] | 3D-Video

Cкрытый текст
Изображение

Мстители
The Avengers


Год выпуска: 2012
Страна: США / Marvel Studios, Paramount Pictures
Слоган: «Some assembly required.»
Жанр: фантастика, боевик, триллер
Продолжительность: 02:22:54
Перевод: Профессиональный (полное дублирование)
Режиссер: Джосс Уидон
Сценарий: Джосс Уидон, Зак Пенн, Стэн Ли, Джек Кирби
Продюсер: Кевин Файги, Виктория Алонсо, Луис Д’Эспозито, Джон Фавро, Алан Файн
Оператор: Шеймас МакГарви
Композитор: Алан Сильвестри
В ролях: Роберт Дауни мл., Крис Эванс, Марк Руффало, Крис Хемсворт, Скарлетт Йоханссон, Джереми Реннер, Том Хиддлстон, Сэмюэл Л. Джексон, Кларк Грегг, Коби Смолдерс, Стеллан Скарсгард, Гвинет Пэлтроу
Бюджет: $220 000 000
Сборы в США: $616 768 487
Сборы в России: $43 334 716
Сборы в мире: $1 480 668 487
Мировая премьера: 25 апреля 2012
Релиз на DVD: 28 августа 2012, «Уолт Дисней Компани СНГ»
Релиз на Blu-ray: 28 августа 2012, «Уолт Дисней Компани СНГ»
Описание: Локи, сводный брат Тора, возвращается, и в этот раз он не один. Земля на грани порабощения, и только лучшие из лучших могут спасти человечество.
Ник Фьюри, глава международной организации Щ. И. Т., собирает выдающихся поборников справедливости и добра, чтобы отразить атаку. Под предводительством Капитана Америки Железный Человек, Тор, Невероятный Халк, Соколиный глаз и Чёрная Вдова вступают в войну с захватчиком.


Изображение User Rating: 8.307 (65 938)
Изображение User Rating: 8.60 (296 955)
MPAA: PG-13 - Детям до 13 лет просмотр не желателен
Изображение
Стереоформат: Горизотальная анаморфная стереопара.
Качество: BDRip, 1080p | 3D-Video
Формат: Matroska
Видео: AVC; 1920x1080 (16:9); 13494 Kbps; 23,976 fps; 0,271 bit/pixel
Аудио №1: Russian; AC3; 640 Kbps; CBR; 6 ch
Аудио №2: Ukrainian; AC3; 640 Kbps; CBR; 6 ch
Аудио №3: DTS; 1509 Kbps; CBR; 6 ch; 24 bit
Оригинал
Субтитры №1: Russian
Субтитры №2: Ukrainian
Субтитры №3:

"Знаете ли Вы, что..."
  • Эдвард Нортон был первоначально утвержден на роль Халка, но переговоры между ним и Marvel Studios не увенчались успехом. В итоге Нортон был заменен Марком Руффало.
  • Первый фильм Marvel, дистрибьютором которого стала Walt Disney Pictures.
  • Прежде чем Марк Руффало снялся в роли Халка, ходили слухи о возможном претенденте на эту роль - Хоакине Фениксе.
  • Морена Баккарин, Джессика Лукас, Мэри Элизабет Уинстэд и Коби Смолдерс проходили кастинг на роль агента Марии Хилл. В итоге роль досталась Коби Смолдерс.
  • Лу Ферриньо озвучивает Халка в этом фильме. Он играл Халка практически во всех экранизациях с 1978 года: Халка в сериале «Невероятный Халк» (1978-1982) и в трёх последующих за ним телевизионных программах, и так же он озвучивал Халка в фильме «Невероятный Халк» (2008). В фильме «Халк» (2003) он снялся в эпизодической роли охранника, и в этой же роли он снялся в «Невероятном Халке» (2008). Помимо этого он озвучивал Халка в различных анимационных экранизациях.
  • Крису Хемсворту пришлось расширить свой диетический рацион, чтобы сохранить телосложение для роли Тора.
  • Марк Руффало описывает Брюса Баннера как «парня, который борется с двумя различными сторонами себя, темной и светлой, и все что он делает в своей жизни проходит через фильтр самоконтроля». Кроме того он описывает альтер эго Баннера – Халка как «неуправляемого - ни один из их команды не уверен в том, что хочет иметь такого соратника. Это как бросить гранату в центр группы людей и надеяться, что всё будет хорошо».
  • Марк Руффало лично изображал Халка при помощи виртуальных камер захвата движения. В предыдущих экранизациях Баннера и Халка играли разные люди (Билл Биксби и бодибилдер Лу Ферриньо), либо Халка добавляли в фильм при помощи компьютерной графики.
  • Режиссер фильма Джосс Уидон в 90-х рассматривался на место режиссера «Люди Икс» (2000). Будучи большим фанатом «Людей Икс» он даже написал сценарий, из которого только две сюжетных линии попали в фильм.
  • Продюсер Кевин Файги сравнивает фильм с «Трансформеры 3: Тёмная сторона Луны» (2011): «Он установил стандарт для уровня сногсшибательности и масштабности. Мы работаем, чтобы попытаться превзойти это».
  • Для Марка Руффало было большой честью то, что он перенял роль Брюса Баннера от его друга Эдварда Нортона: «Эд передал мне эту роль, и я отношусь к ней, как к Гамлету моего поколения».
  • Организация по Науке и Развлечениям (The Science and Entertainment Exchange) давала консультации для этого фильма.
  • По словам Джосса Уидона фильм подвергся большому влиянию комиксов «Мстители» 1960-ых годов, фанатом которых был и он сам пока рос: «В тех комиксах эти люди не должны быть даже в одной комнате, не говоря уже об одной команде – и это и есть определение семьи».
  • Том Хиддлстон в одном интервью сказал по поводу своей роли Локи: «Я могу вам сказать, что это они все против меня. Я – супер злодей. И Железный Человек, Невероятный Халк, Капитан Америка, Тор, Соколиный Глаз, Черная Вдова и Ник Фьюри сформировали команду, потому что иначе им было не справиться со мной». После того как Локи доставили на борт корабля, Тони Старк носит футболку «Black Sabbath». Эта группа хорошо известна благодаря их песне «Iron Man». И хотя изначально песня никак не была связана с героем комиксов Marvel, она ещё с тех пор упоминается в комиксах и так же в конце фильма «Железный человек» (2008), когда Тони цитирует текст песни фразой «Я Железный Человек».
  • Команда людей, задействованных в «Мстителях», включает в себя необычайно высокое число номинированных на премию «Оскар» для фильма снятого по комиксам: Роберт Дауни мл., Гвинет Пэлтроу, Сэмюэл Л. Джексон, Джереми Реннер, Марк Руффало, режиссер Джосс Уидон, оператор Шеймас МакГарви, и многие другие. Это превосходит фильмы «Железный Человек 2» (2010) и «Железный Человек» (2008), каждый из которых имеют по четыре номинанта.
  • Несмотря на то, что студия Paramount Pictures не имела участия ни в производстве фильма, ни в области маркетинга или распространения, их логотип все еще появляется в рекламе. И, несмотря на то, что Disney выкупила права на распространение фильмов Marvel у Paramount (с тех пор как Marvel стала частью компании Disney), последняя все еще получает часть гонораров за эти проекты. Никакого упоминания о Disney нет вплоть до окончания финальных титров, где «Walt Disney Studios Motion Pictures» отмечается как дистрибьютор фильма.
  • Для показа в кинотеатрах фильм после съемок был конвертирован в 3D.
  • Тони Старк описывает свою группу как «Могучие герои Земли». Подобные фразы появлялись в комиксах «Мстители» с момента публикации в 1963 году. Также эта фраза была использована в качестве подзаголовка к сериалу «Мстители: Могучие герои Земли» (2010). Это самый последний мультсериал, выпущенный до появления фильма.
  • Это второй раз, когда Брюс Баннер/Халк и Тор появились вместе в одном фильме. Впервые это произошло в фильме «Невероятный Халк: Возращение» (1988).
  • По словам режиссера Джосса Уидона оригинальная версия фильма имела продолжительность более трех часов. Около 30 вырезанных минут будут включены в релиз на DVD, большинство из них о Стиве Роджерсе (Капитан Америка). Уидон рассказал, что в одной из таких сцен показывается, как Роджерс пытается приспособиться к современному миру в своих апартаментах в Бруклине, а в другой демонстрируется воссоединение Стива Роджерса с Пегги Картер, его возлюбленной из фильма «Первый мститель» (2011).
  • Том Хиддлстон в интервью газете «The Guardian» рассказал, что кодовое название фильма на начальной стадии его создания было «Group Hug».
  • Самюэл Л. Джексон в роли Ника Фьюри в этом фильме стал вторым актером после Хью Джекмана (который появлялся во всех фильмах о Людях Икс), кто сыграл одного и того же супергероя комиксов в пяти различных фильмах.
  • Читаури появляются в первой сюжетной линии «The Ultimates», альтернативный пересказ вселенной супергероев Marvel. В комиксах Читаури так же упоминаются как Скруллы. Использование названия Читаури вместо более популярного Скруллы вызвано юридическими сложностями с Fox Studios, которой принадлежат права на «Фантастическую четверку» (2005) (где и возникли Скруллы). На момент съемок, Fox владела правами на все версии фильма «Фантастическая четверка» и связанных с ним персонажей, таким образом, Marvel/Disney пришлось назвать пришельцев Читаури, чтобы не нарушать соглашение с Fox.
  • Тор проводит большую часть фильма в броне Асгарда, но с голыми руками - это дань его ранним появлениям в комиксах.
  • Ник Фьюри Самюэля Л. Джексона из вселенной Ultimate Marvel, созданной в 2000 году, чтобы повторно представить и обновить героев Marvel в 21-ом веке. Образ Фьюри был фактически взят с Джексона, который дал разрешение Marvel на это. Впоследствии, это привело к тому, что Джексон играл Фьюри во всех фильмах Marvel .
  • Хотя Марк Руффало единственный актер, который не появлялся в предыдущих фильмах Marvel в роли своего героя, Лу Ферриньо озвучивал Халка так же как и в фильме 2008 года с Эдвардом Нортоном. Ферриньо озвучивал Халка в любой экранизации, начиная с телешоу «Невероятный Халк» с Биллом Биксби в 1977 году. Исключением является лишь версия Халка 2003 года от Энга Ли, где Ферриньо играл охранника.
  • Капитан Америка в фильме является одним из основателей. В комиксах он был разморожен в №4 «Мстителей», когда его случайно нашли во время поисков Нэмора (Namor the Sub Mariner).
  • Чтобы подготовиться к роли агента Клинта Бартона (Соколиный глаз), Джереми Реннер обучался у Олимпийских лучников.
  • Чтобы добавить реализма сражению в сцене нападения на Нью-Йорк, были наняты 25 человек из 391-го батальона военной полиции Огайо.
  • Боевой клич Мстителей - «Avengers Assemble» так и не был произнесен на протяжении всего фильма. Однако Крис Эванс использовал его в текстовых сообщениях, чтобы собрать актерскую команду для совместного отдыха после съемок.
  • Финальная сцена была добавлена после того, как Роберт Дауни мл. поспособствовал изменению предыдущей сцены. В оригинале, после того как Тор срывает маску Железного человека с лежащего без сознания Тони Старка, только что упавшего обратно на Землю, Тони приходит в себя и спрашивает: «Что дальше?». Роберт Дауни мл. посчитал, что этот момент может быть более интересным, и так родилась идея похода в местный ресторан с шаурмой. Сцена была добавлена через два дня после премьеры в Голливуде.
  • Сцены на открытом воздухе, которые должны были сниматься в Германии, но были сняты в центре Кливленда, показывают многочисленные исторические достопримечательности Кливленда, в частности: Tower City, Higbee Building & Casino, Renaissance Building и the Soldiers & Sailors Monument.
  • Уже после премьеры, когда снимали дополнительные сцены, Крису Эвансу пришлось носить специальную накладку, чтобы скрыть волосы на лице которые он отрастил для фильма, в котором снимался в тот момент. Его даже заставили частично закрыть лицо руками.
  • Место на корабле, где находится лаборатория Баннера, упоминается в военно-морской архитектуре, как колодезная палуба, защищенное место стыковки, которое обычно используется для запуска небольших лодок или катеров на воздушной подушке для перевозки войск на берег.
  • Все сцены снятые в штате Огайо изначально планировали снимать в штате Мичиган. Съемки были перенесены в Огайо, когда выяснилось, что в Мичигане собрались отменить возврат налогов за киносъемки.
  • Первый фильм, получивший прибыль в 200 млн. долларов, за первые три дня показа в США.
  • Локи описывается как король в мире, из которого он пришел. Вскоре после этого показывается, как он появляется в Штутгарте, чтобы получить доступ к запасам иридия в лаборатории, в сопровождении одурманенного Соколиного Глаза. Когда Мстители спрашивают о местонахождении Локи, он говорит, что находится на «22 Кёнигштрассе». Кёниг по-немецки означает «король».
  • После того как Тор забирает Локи с Квинджета (Quinjet) вниз на склон горы, два больших ворона пролетают мимо них, пока они говорят. В скандинавской мифологии, у их отца, Одина, было два ворона, Думающий (Huginn) и Помнящий (Muninn), которые приносили Одину информацию из Мидгарда (Земля).
  • Элисон Хэннигэн, партнер Коби Смолдерс по сериалу «Как я встретил вашу маму» (2005), предложила режиссеру Джоссу Уидону, чтобы он взял Смолдерс на роль Марии Хилл. Хэннигэн так же работала с Уидоном в сериале «Баффи – истребительница вампиров» (1997-2003).
  • Футболка Тони Старка с тура Black Sabbath 1978 года. Это был последний тур группы с Оззи Осборном в качестве вокалиста, с многообещающей в то время группой Van Halen на разогреве.
  • Одномоторные истребители являются компьютерной визуализацией моделей F-35 корпорации Локхид Мартин. F-35 появляются в нескольких сценах, включая момент, где самолет переходит от горизонтального полета к режиму висения с поворотом вектора тяги, для стрельбы 25-мм орудием. F-35 все еще находятся в разработке и не будут иметь даже базовой боеспособности до конца 2015 года.
  • Родстер Acura Тони Старка не является ни концепт-спорткаром автосалона 2012, ни прототипом гибрида следующего поколения спорткара Acura 2015 года. Она была разработана специально для фильма главным конструктором Honda North America Дейвом Мареком. Основой для машины послужил спорткар 1991 года из Аризоны с 252000 миль пробега. Интерьер машины в фильме практически шаблонный, и имеет оригинальный кассетный плеер на панели.
  • В конце фильма, когда ролик новостей с официанткой появляется на экране компьютера Ника Фьюри, запись помечена как ЩИТ, файл А113. «А113» - ссылка на номер комнаты графического дизайна Калифорнийского института искусств.
  • Официантку, спасенную Капитаном Америкой, и которая позже дает интервью о Мстителях, зовут «Бет» (имя можно увидеть на ее футболке во время интервью).
  • Марк Руффало является единственным актером на 2012 год, кто играл как Халка, так и Брюса Баннера в одном фильме. Технически, оба – Эрик Бана и Эдвард Нортон проделали работу по захвату движений для соответствующих им Халков. Но Руффало первый актер, играющий Халка в живую на съемочной площадке, с использованием метода захвата движения.
  • «Мстители» стал одним из одиннадцати фильмов собравшим более 1 миллиарда долларов по всему миру.
  • Первый фильм Marvel собравший 1 миллиард долларов.
  • Аманда Пит рассматривалась на роль Агента Марии Хилл.
  • В финальных титрах фильмов «Тор» (2011) и «Мстители» (2012) можно увидеть «спасибо» Ральфу Маччио. Эта благодарность не для актера из фильма «Парень-каратист» (1984), а для человека с таким же именем, который был писателем Marvel в 1980-х.
  • По общему мнению была снята сцена, где во время финальной битвы Капитан Америка спасает старика, пытающегося защитить своего внука. Он говорит ему «идите в укрытие», но как только собирается уйти старик спрашивает его «Капитан, это действительно вы?». Он поворачивается и видит ветерана Второй Мировой войны приветствующего его. После того как Капитан уходит, ребенок спрашивает старика «Ты знаешь его?» и он отвечает «Мы все его знаем».
  • Эпизодическая роль Стэна Ли: старик дающий интервью в конце Нью-Йоркского сражения.
  • Том Хиддлстон рассказывает, что Локи вырос с момента событий в «Торе»: «Как приятен должен быть такой опыт, как исчезнуть во временном тоннеле, который был создан при помощи некого ядерного взрыва сделанного собственноручно? Я думаю, что к тому времени, когда Локи появляется, он повидал многое и думает уже о более важных вещах, чем просто о брате и Асгарде…».
  • Локи приводит Читаури на Землю, чтобы помочь ему захватить ее, это заставляет сформироваться отряд Мстителей для предотвращения этого. Это полностью соответствует комиксам, где Локи был виновником ряда катастроф, которые собрали вместе Мстителей (кстати, это произошло в самом первом выпуске серии одноименных комиксов).
  • Халк произносит всего одну реплику: «Мелковат».
  • Читаури, злодейская инопланетная раса этого фильма, были главными злодеями первой части комиксов «The Ultimates». Впоследствии Локи был одним из главных злодеев во второй части тех же комиксов, хотя его появление не имеет ничего общего с Читаури.
  • Во время финальной битвы разрушается практически весь логотип компании с башни Старка, остается только освещенная буква «А» в конце фильма. Это тонкий намек (на возможный сиквел) на комикс, где штаб-квартирой Мстителей стало гигантское строение, изображаемое как здание в форме буквы «А» или, как небоскреб с гигантской буквой «А» на его вершине.
  • Персонаж, с которым Читаури разговаривает в сцене после титров, это Танос - Безумный Титан, главный суперзлодей во вселенной Marvel. Он – убийца космических масштабов, который буквально влюблен в воплощение Смерти, которая и является причиной его улыбки на фразе «судиться со смертью».
  • Во время сцены в Штутгарте показаны несколько зеленых полицейских машин. Однако, в Баден-Вюртемберге (столицей которого является Штутгарт) полицейские машины окрашены в синий цвет. Кроме того, мигалки на немецких полицейских машинах синие, а не желто-оранжевые.
  • Когда доктор Баннер впервые встречается с Агентом Романофф в сарае, есть кадр, где она говорит, а ее отражение в небольшом зеркале позади Баннера нет.
  • Когда один из операторов возобновляет игру в Galaga, использован звук характерный для вражеского корабля, пытающегося захватить корабль игрока. А в фильме этот звук использован во время обычной игры.
  • В нескольких кадрах, где Железный Человек летит по городу, у него видны порезы на лбу. Тем не менее, после того как Тор срывает маску с лежащего на земле Тони Старка, этих порезов уже нет.
  • Почти в конце сцены драки Железного Человека с Тором, когда появляется Капитан Америка и пытается убедить Тора остановиться, ясно видно, что, когда Железный Человек попал под молот Тора, он падает на землю в 10 или 20 метрах от Тора. Затем, когда Тор атакует Капитана Америку, Капитан блокирует удар своим щитом, и мы видим, как Тор отлетает метров на 5 от него. После этого, наши три героя встают, но теперь они гораздо ближе друг к другу, чем можно было ожидать. Это особенно заметно по Железному Человеку, который стоит прямо рядом с Капитаном Америкой.
  • После того, как капитан Америка берет очередную боксерскую грушу с пола, видно, что она новая и не обмотана лентой. Однако, в следующем кадре снизу, эта лента уже есть. На всех остальных кадрах она так же без ленты, как и в начале.
  • Когда Капитан Америка и Агент Колсон прилетают на корабль, на общем плане, во время посадки видно как крылья их транспорта складываются. В следующем кадре, когда Капитан Америка высаживается, крылья вытянуты.
  • Когда Локи только прибыл, показывается, как Ник Фьюри стоит рядом с Соколиным Глазом, женщина (Соколиного Глаза нигде не было видно), а затем и Соколиный Глаз возвращается в течение трех выстрелов.
  • Агент Хилл преследует Соколиного Глаза и стреляет в него через лобовое стекло со своей стороны водителя, оставляя отверстие размером с грейпфрут, а секундами позже отверстие со стороны пассажирского кресла.
  • В кадре, где Тони Старк на борту корабля в конференц-зале с Ником Фьюри и Стивом Роджерсом (и еще раз, когда он стоит в баре в башне Старка и разговаривает с Локи), свечение от дуги реактора в его груди не видно через футболку Black Sabbath. Но оно заметно, когда он в той же футболке находится в лаборатории с доктором Баннером.
  • Когда Брюс Баннер впервые появляется на мостике корабля, он снимает пиджак, складывает и прижимает его рукой, а в следующем кадре пиджак накинут на руку.
  • Во время нападения на Нью-Йорк, когда только начинают взрывать машины, можно видеть приводящий их в движение кабель, прикреплённый к одной из машин, в момент, когда она переворачивается.
  • Полицейская машина в Штутгарте показана моделью BMW 3-серии. Полиция в Баден-Вюртемберге ездит только на Mercedes Benz или Porsche. Полиции разрешается водить машины только этих компаний, с того момента, как их головные офисы расположились на этой земле Германии.
  • В самом начале фильма, когда допрашивают Черную Вдову, показывают рекламный щит с предполагаемыми надписями на русском. На самом деле написанное не имеет смысла и представляет собой просто набор случайных букв кириллицы. Кроме того, локомотивы поездов, которые можно видеть в кадре, все новые американские магистральные товарные поезда, и никогда не использовались ни в России, ни в Восточной Европе в целом.
  • В титрах название компании NAMCO Bandai написано с ошибкой - NAMECO Bandai.
  • Когда самолет с Локи вот-вот должен приземлиться на корабль видно управляющего диспетчера. В следующем общем плане сверху его уже нет.
  • Логотипы Marvel Studios и Paramount Pictures показываются внутри тессеракта.
  • Во время титров есть сцена, где герой Marvel Танос появляется рядом с Читаури. Они оба смотрят вниз на планету Земля, и Танос улыбается, говоря, что они недооценили Землю.
  • В самом конце титров в американском релизе есть финальная сцена. Ранее в фильме Тони Старк шутит, что он хочет попробовать шаурму, даже, несмотря на то, что он не знает что это такое. И в финальной сцене они сидят в ресторане, где около 30 секунд молча едят шаурму, поглядывая друг на друга.
Свернуть
mediainfo
General
Unique ID : 220433329549691608560157473970171321762 (0xA5D5EA3E3B315225865F6C6A172E9DA2)
Complete name : K:\Torrent\The.Avengers..mkv
Format : Matroska
Format version : Version 2
File size : 16.6 GiB
Duration : 2h 22mn
Overall bit rate : 16.6 Mbps
Movie name : ПаZиtиFFк@
Encoded date : UTC 2012-08-22 12:15:29
Writing application : mkvmerge v5.7.0 ('The Whirlwind') built on Jul 8 2012 20:08:51
Writing library : libebml v1.2.3 + libmatroska v1.3.0

Video
ID : 1
Format : AVC
Format/Info : Advanced Video Codec
Format profile : High@L5.1
Format settings, CABAC : Yes
Format settings, ReFrames : 2 frames
Codec ID : V_MPEG4/ISO/AVC
Duration : 2h 22mn
Bit rate : 13.5 Mbps
Width : 1 920 pixels
Height : 1 080 pixels
Display aspect ratio : 16:9
Frame rate : 23.976 fps
Color space : YUV
Chroma subsampling : 4:2:0
Bit depth : 8 bits
Scan type : Progressive
Bits/(Pixel*Frame) : 0.271
Stream size : 13.5 GiB (81%)
Title : Мстители / The Avengers (2012) [1080p] BDRip
Writing library : x264 core
Language : English
Default : Yes
Forced : No
Color primaries : BT.709-5, BT.1361, IEC 61966-2-4, SMPTE RP177
Transfer characteristics : BT.709-5, BT.1361
Matrix coefficients : BT.709-5, BT.1361, IEC 61966-2-4 709, SMPTE RP177

Audio #1
ID : 2
Format : AC-3
Format/Info : Audio Coding 3
Mode extension : CM (complete main)
Codec ID : A_AC3
Duration : 2h 22mn
Bit rate mode : Constant
Bit rate : 640 Kbps
Channel(s) : 6 channels
Channel positions : Front: L C R, Side: L R, LFE
Sampling rate : 48.0 KHz
Bit depth : 16 bits
Compression mode : Lossy
Stream size : 654 MiB (4%)
Title : DUB
Language : Russian
Default : Yes
Forced : No

Audio #2
ID : 3
Format : AC-3
Format/Info : Audio Coding 3
Mode extension : CM (complete main)
Codec ID : A_AC3
Duration : 2h 22mn
Bit rate mode : Constant
Bit rate : 640 Kbps
Channel(s) : 6 channels
Channel positions : Front: L C R, Side: L R, LFE
Sampling rate : 48.0 KHz
Bit depth : 16 bits
Compression mode : Lossy
Stream size : 654 MiB (4%)
Title : DUB
Language : Ukrainian
Default : No
Forced : No

Audio #3
ID : 4
Format : DTS
Format/Info : Digital Theater Systems
Codec ID : A_DTS
Duration : 2h 22mn
Bit rate mode : Constant
Bit rate : 1 510 Kbps
Channel(s) : 6 channels
Channel positions : Front: L C R, Side: L R, LFE
Sampling rate : 48.0 KHz
Bit depth : 24 bits
Compression mode : Lossy
Stream size : 1.51 GiB (9%)
Title : Original
Language : English
Default : No
Forced : No

Text #1
ID : 5
Format : PGS
Muxing mode : zlib
Codec ID : S_HDMV/PGS
Codec ID/Info : The same subtitle format used on BDs/HD-DVDs
Language : Russian
Default : Yes
Forced : No

Text #2
ID : 6
Format : PGS
Muxing mode : zlib
Codec ID : S_HDMV/PGS
Codec ID/Info : The same subtitle format used on BDs/HD-DVDs
Language : Ukrainian
Default : No
Forced : No

Text #3
ID : 7
Format : PGS
Muxing mode : zlib
Codec ID : S_HDMV/PGS
Codec ID/Info : The same subtitle format used on BDs/HD-DVDs
Language : English
Default : No
Forced : No

Menu
00:00:00.000 : en:(01)00:00:00:000
00:08:02.315 : en:(02)00:08:02:315
00:11:49.166 : en:(03)00:11:49:166
00:15:18.751 : en:(04)00:15:18:751
00:20:33.482 : en:(05)00:20:33:482
00:23:04.257 : en:(06)00:23:04:257
00:29:39.444 : en:(07)00:29:39:444
00:37:23.991 : en:(08)00:37:23:991
00:42:47.982 : en:(09)00:42:47:982
00:50:22.269 : en:(10)00:50:22:269
01:01:04.661 : en:(11)01:01:04:661
01:14:05.107 : en:(12)01:14:05:107
01:28:01.234 : en:(13)01:28:01:234
01:38:20.561 : en:(14)01:38:20:561
01:45:40.167 : en:(15)01:45:40:167
01:51:15.085 : en:(16)01:51:15:085
01:57:47.769 : en:(17)01:57:47:769
02:04:38.679 : en:(18)02:04:38:679
02:09:39.396 : en:(19)02:09:39:396
02:13:10.691 : en:(20)02:13:10:691
02:22:54.649 : en:(21)02:22:54:649
Свернуть
Скриншоты

Изображение
Изображение
Изображение
Изображение
Свернуть
Свернуть
_________________
ИзображениеИзображение Изображение
Изображение
Не в сети
Профиль  
 Добавлено: 2012-09-08 11:11 (спустя 16 дней)
Стаж: 8 лет 1 месяц
Сообщений: 10
Спасибок: 3
Лайков: 2
Что, по горизонтали 1920, а не 3840?
Не в сети
Профиль  
 Добавлено: 2012-09-29 12:56 (спустя 21 день)
Стаж: 5 лет
Сообщений: 11
Подскажите пожалуйста что нужно сделать, в фильме говорят на 2 языках одновременно, на русском и на английском, и так получается что разобрать половину слов не выходит, что надо сделать что бы был только русский язык. Воспроизвожу через media player classic - home cinema
В сети
Профиль  
 Добавлено: 2013-03-23 14:37 (спустя 5 месяцев 24 дня)
Аватара пользователя
Стаж: 8 лет 2 месяца
Сообщений: 358
Спасибок: 744
Лайков: 13
Это вертикальная стереопара?
Не в сети
Профиль  
Начать новую темуОтветить на тему  [ Сообщений: 6 ] 
Вы не можете начинать темы
Вы не можете отвечать на сообщения
Вы не можете редактировать свои сообщения
Вы не можете удалять свои сообщения