Правила форума

  • В этом разделе создание новых тем Запрещено.
  • Для создания новых тем пользуйтесь Корневым разделом DVD и HD фильмы.
Начать новую темуОтветить на тему  [ Сообщений: 3 ] 
Торрент файл
Размер: 7.95 GB • Зарегистрирован: 4 года 3 месяца • Статус: Проверено
Скачан: 1226 раз • Желающих скачать: 0 • Поблагодарили: 208 раз
 Раздают: 0  |  0 KB/s  ]   Качают: 0  |  0 KB/s  ] 
 Полного источника не было 3 часа 
Сообщения
 Добавлено: 2012-08-23 11:40
Книголюб
Аватара пользователя
Стаж: 7 лет 2 месяца
Сообщений: 2823
Спасибок: 48824
Лайков: 73
Мстители
The Avengers

Изображение


Год выпуска: 2012
Страна: США
Слоган: «Some assembly required.»
Жанр: фантастика, боевик, триллер
Продолжительность: 02:10:45
Перевод: Профессиональный (дубляж)

Режиссёр: Джосс Уидон
В ролях: Роберт Дауни мл., Крис Эванс, Марк Руффало, Крис Хемсворт, Скарлетт Йоханссон, Джереми Реннер, Том Хиддлстон, Сэмюэл Л. Джексон, Кларк Грегг, Коби Смолдерс
Описание: Локи, сводный брат Тора, возвращается, и в этот раз он не один. Земля на грани порабощения, и только лучшие из лучших могут спасти человечество.

Ник Фьюри, глава международной организации Щ. И. Т., собирает выдающихся поборников справедливости и добра, чтобы отразить атаку. Под предводительством Капитана Америки Железный Человек, Тор, Невероятный Халк, Соколиный глаз и Чёрная Вдова вступают в войну с захватчиком.
Рейтинг MPAA: Рейтинг PG-13 (Дети до 13 лет допускаются на фильм только с родителями)
Мировая премьера: 25 апреля 2012
Бюджет: $220 000 000
Изображение 8.306 65 972

Качество: BDRip.1080p.
Формат: MKV
Видео кодек: H.264
Аудио кодек: AC3 (Dolby Digital)
Видео: 1920x1080 23.976fps 7 324 Kbps 0.147Bits/Pixel
Аудио #1: 48000Hz 6ch 640 Kbps
MediaInfo
General
Unique ID : 194957519496250024975246146491139295308 (0x92AB73D4F386EE5A9645682FD5ED084C)
Complete name : K:\Torrent\The Avengers.mkv
Format : Matroska
Format version : Version 2
File size : 7.95 GiB
Duration : 2h 22mn
Overall bit rate : 7 960 Kbps
Movie name : Rip by NigAndr (NOLIMITS-TEAM.RU)
Encoded date : UTC 2012-08-21 20:49:56
Writing application : mkvmerge v5.7.0 ('The Whirlwind') built on Jul 8 2012 20:08:51
Writing library : libebml v1.2.3 + libmatroska v1.3.0

Video
ID : 1
Format : AVC
Format/Info : Advanced Video Codec
Format profile : High@L4.1
Format settings, CABAC : Yes
Format settings, ReFrames : 4 frames
Codec ID : V_MPEG4/ISO/AVC
Duration : 2h 22mn
Bit rate : 7 324 Kbps
Width : 1 920 pixels
Height : 1 080 pixels
Display aspect ratio : 16:9
Frame rate : 23.976 fps
Color space : YUV
Chroma subsampling : 4:2:0
Bit depth : 8 bits
Scan type : Progressive
Bits/(Pixel*Frame) : 0.147
Stream size : 7.15 GiB (90%)
Title : Мстители / The Avengers (2012) BDRip 1080p (DVD9) от NOLIMITS-TEAM
Writing library : x264 core 125 r2208 d9d2288
Encoding settings : cabac=1 / ref=4 / deblock=1:0:0 / analyse=0x3:0x113 / me=umh / subme=10 / psy=1 / psy_rd=1.00:0.10 / mixed_ref=1 / me_range=32 / chroma_me=1 / trellis=2 / 8x8dct=1 / cqm=0 / deadzone=21,11 / fast_pskip=0 / chroma_qp_offset=-3 / threads=6 / lookahead_threads=1 / sliced_threads=0 / slices=4 / nr=0 / decimate=0 / interlaced=0 / bluray_compat=0 / constrained_intra=0 / bframes=5 / b_pyramid=2 / b_adapt=2 / b_bias=0 / direct=3 / weightb=1 / open_gop=0 / weightp=2 / keyint=240 / keyint_min=24 / scenecut=40 / intra_refresh=0 / rc_lookahead=60 / rc=2pass / mbtree=1 / bitrate=7324 / ratetol=2.0 / qcomp=0.60 / qpmin=0 / qpmax=51 / qpstep=4 / cplxblur=20.0 / qblur=0.5 / ip_ratio=1.40 / aq=1:1.00
Language : English
Default : Yes
Forced : No

Audio
ID : 2
Format : AC-3
Format/Info : Audio Coding 3
Mode extension : CM (complete main)
Codec ID : A_AC3
Duration : 2h 22mn
Bit rate mode : Constant
Bit rate : 640 Kbps
Channel(s) : 6 channels
Channel positions : Front: L C R, Side: L R, LFE
Sampling rate : 48.0 KHz
Bit depth : 16 bits
Compression mode : Lossy
Stream size : 654 MiB (8%)
Title : Дубляж
Language : Russian
Default : Yes
Forced : No

Text #1
ID : 3
Format : UTF-8
Codec ID : S_TEXT/UTF8
Codec ID/Info : UTF-8 Plain Text
Title : Русские(форсирующие)
Language : Russian
Default : Yes
Forced : Yes

Text #2
ID : 4
Format : UTF-8
Codec ID : S_TEXT/UTF8
Codec ID/Info : UTF-8 Plain Text
Title : украинские(форс.)
Language : Ukrainian
Default : No
Forced : No

Text #3
ID : 5
Format : UTF-8
Codec ID : S_TEXT/UTF8
Codec ID/Info : UTF-8 Plain Text
Title : Английские
Language : English
Default : No
Forced : No

Menu
00:00:00.000 : :Chapter 01
00:08:02.315 : :Chapter 02
00:11:49.166 : :Chapter 03
00:15:18.751 : :Chapter 04
00:20:33.482 : :Chapter 05
00:23:04.257 : :Chapter 06
00:29:39.444 : :Chapter 07
00:37:23.991 : :Chapter 08
00:42:47.982 : :Chapter 09
00:50:22.269 : :Chapter 10
01:01:04.661 : :Chapter 11
01:14:05.107 : :Chapter 12
01:28:01.234 : :Chapter 13
01:38:20.561 : :Chapter 14
01:45:40.167 : :Chapter 15
01:51:15.085 : :Chapter 16
01:57:47.769 : :Chapter 17
02:04:38.679 : :Chapter 18
02:09:39.396 : :Chapter 19
02:13:10.691 : :Chapter 20


Свернуть

Скриншоты
Изображение
Изображение
Изображение
Изображение
Свернуть
 13ad666 нравится это.
Не в сети
Профиль  
 Добавлено: 2014-08-08 13:02 (спустя 1 год 11 месяцев)
Стаж: 6 лет 6 месяцев
Сообщений: 2
Скорости мне!!
Не в сети
Профиль  
 Добавлено: 2014-08-10 15:29 (спустя 2 дня 2 часа)
Аватара пользователя
Стаж: 7 лет 5 месяцев
Сообщений: 41
А источник не подскажешь?
Не в сети
Профиль  
Начать новую темуОтветить на тему  [ Сообщений: 3 ] 
Вы не можете начинать темы
Вы не можете отвечать на сообщения
Вы не можете редактировать свои сообщения
Вы не можете удалять свои сообщения