Правила форума

  • В этом разделе создание новых тем Запрещено.
  • Для создания новых тем пользуйтесь Корневым разделом DVD и HD фильмы.
Начать новую темуОтветить на тему  [ Сообщений: 2 ] 
Торрент файл
Размер: 11.33 GB • Зарегистрирован: 3 года 9 месяцев • Статус: Проверено
Скачан: 123 раза • Желающих скачать: 0 • Поблагодарили: 36 раз
 Раздают: 0  |  0 KB/s  ]   Качают: 0  |  0 KB/s  ] 
 Полного источника не было 13 дней 
Сообщения
 Добавлено: 2013-02-22 02:11
Аватара пользователя
Стаж: 9 лет 1 месяц
Сообщений: 8018
Спасибок: 122267
Лайков: 1194
Мужчина нарасхват / Playing for Keeps

Изображение


Год выпуска: 2012
Страна: Изображение США
Жанр: мелодрама, комедия
Продолжительность: 01:45:37
Субтитры: Английские
Перевод: Профессиональный (полное дублирование) [Лицензия]


Режиссёр: Габриэле Муччино
Сценарист: Робби Фокс
Продюсер: Джерард Батлер, Хайди Джо Маркел, Кевин Мишер
Оператор: Питер Мензиес мл.
Композитор: Андреа Гуэрра

В ролях: Джерард Батлер, Джессика Бил, Ума Турман, Кэтрин Зета-Джонс, Деннис Куэйд, Ной Ломакс, Джеймс Таппер, Джуди Грир, Абелла Уайсс, Грант Гудман, Грант Коллинз, Эйдан Поттер, Марлена Лернер, Икбал Теба, Шон О’Брайан, Майк Мартиндейл, Джейсон Уинстон Джордж, Эмили Сомерс, Джерри Мэй, Катя Гомез, Джизелла Маренго, Синди Крикмор, Ники Баггз, Ричи Монтгомери, Джон Макк, Джесси Де Луна, Сумая Аккабуне, Паркер Дэйн Эппс, Джо Крест, Шанна Форресталль, Аиша Кабиа, Джоди Ламберт, Адам Кулберш, Кимберли Хоторн, Лианн Паттисон, Линда Леонард, Стефани Сворд

Описание: Звезда футбола и просто шикарный мужчина по воле случая становится тренером детской футбольной команды. С этого момента для своих подопечных и их обольстительных мамочек он — «Мужчина нарасхват»…

Изображение Изображение

Изображение & Изображение

Качество: BDRip (1080p)
Формат: Matroska
Видео: MPEG-4 AVC, 13.1 Мбит/с, 1920x800
Аудио №1: Русский (AC3, 6 ch, 448 Кбит/с)
Аудио №2: Английский (DTS, 6 ch, 1510 Кбит/с)

MediaInfo
Общее
Уникальный идентификатор : 254260213375392960941591065799506326445 (0xBF48BC615C2911DD9746FC9D4D08F3AD)
Полное имя : I:\Playing.for.Keeps.(2012).BDRip1080p.nntt.org.mkv
Формат : Matroska
Версия формата : Version 4 / Version 2
Размер файла : 11,3 Гбайт
Продолжительность : 1 ч. 45 м.
Общий поток : 15,4 Мбит/сек
Дата кодирования : UTC 2013-02-21 18:42:59
Программа кодирования : mkvmerge v6.0.0 ('Coming Up For Air') built on Jan 20 2013 09:52:00
Библиотека кодирования : libebml v1.3.0 + libmatroska v1.4.0

Видео
Идентификатор : 1
Формат : AVC
Формат/Информация : Advanced Video Codec
Профиль формата : High@L4.1
Параметр CABAC формата : Да
Параметр ReFrames формата : 5 кадров
Идентификатор кодека : V_MPEG4/ISO/AVC
Продолжительность : 1 ч. 45 м.
Битрейт : 13,1 Мбит/сек
Ширина : 1920 пикселей
Высота : 800 пикселей
Соотношение сторон : 2,40:1
Режим частоты кадров : Постоянный
Частота кадров : 23,976 кадра/сек
Цветовое пространство : YUV
Субдискретизация насыщенности : 4:2:0
Битовая глубина : 8 бит
Тип развёртки : Прогрессивная
Бит/(Пиксели*Кадры) : 0.356
Размер потока : 9,66 Гбайт (85%)
Библиотека кодирования : x264 core 129 r2245 bc13772
Настройки программы : cabac=1 / ref=5 / deblock=1:-3:-3 / analyse=0x3:0x113 / me=tesa / subme=10 / psy=1 / psy_rd=1.10:0.05 / mixed_ref=1 / me_range=24 / chroma_me=1 / trellis=2 / 8x8dct=1 / cqm=0 / deadzone=21,11 / fast_pskip=0 / chroma_qp_offset=-3 / threads=12 / lookahead_threads=2 / sliced_threads=0 / nr=0 / decimate=1 / interlaced=0 / bluray_compat=0 / constrained_intra=0 / bframes=7 / b_pyramid=2 / b_adapt=2 / b_bias=0 / direct=3 / weightb=1 / open_gop=0 / weightp=2 / keyint=250 / keyint_min=23 / scenecut=40 / intra_refresh=0 / rc_lookahead=60 / rc=crf / mbtree=0 / crf=17.0 / qcomp=0.60 / qpmin=0 / qpmax=69 / qpstep=4 / vbv_maxrate=50000 / vbv_bufsize=62500 / crf_max=0.0 / nal_hrd=none / ip_ratio=1.40 / pb_ratio=1.30 / aq=2:0.90
Язык : English
Default : Да
Forced : Нет
Основные цвета : BT.709
Характеристики трансфера : BT.709
Коэффициенты матрицы : BT.709

Аудио #1
Идентификатор : 2
Формат : AC-3
Формат/Информация : Audio Coding 3
Расширение режима : CM (complete main)
Параметр Endianness формата : Big
Идентификатор кодека : A_AC3
Продолжительность : 1 ч. 45 м.
Вид битрейта : Постоянный
Битрейт : 448 Кбит/сек
Каналы : 6 каналов
Расположение каналов : Front: L C R, Side: L R, LFE
Частота : 48,0 КГц
Битовая глубина : 16 бит
Метод сжатия : С потерями
Размер потока : 338 Мбайт (3%)
Заголовок : RUS DUB
Язык : Russian
Default : Да
Forced : Нет

Аудио #2
Идентификатор : 3
Формат : DTS
Формат/Информация : Digital Theater Systems
Режим : 16
Параметр Endianness формата : Big
Идентификатор кодека : A_DTS
Продолжительность : 1 ч. 45 м.
Вид битрейта : Постоянный
Битрейт : 1509 Кбит/сек
Каналы : 6 каналов
Расположение каналов : Front: L C R, Side: L R, LFE
Частота : 48,0 КГц
Битовая глубина : 24 бит
Метод сжатия : С потерями
Размер потока : 1,11 Гбайт (10%)
Язык : English
Default : Нет
Forced : Нет

Текст
Идентификатор : 4
Формат : UTF-8
Идентификатор кодека : S_TEXT/UTF8
Идентификатор кодека/Информация : UTF-8 Plain Text
Язык : English
Default : Нет
Forced : Нет

Меню
00:00:00.000 : en:00:00:00.000
00:05:20.570 : en:00:05:20.570
00:12:47.225 : en:00:12:47.225
00:17:47.942 : en:00:17:47.942
00:26:00.768 : en:00:26:00.768
00:29:59.464 : en:00:29:59.464
00:37:14.816 : en:00:37:14.816
00:41:30.863 : en:00:41:30.863
00:49:01.814 : en:00:49:01.814
00:57:41.041 : en:00:57:41.041
01:01:35.692 : en:01:01:35.692
01:07:56.281 : en:01:07:56.281
01:13:48.466 : en:01:13:48.466
01:19:21.215 : en:01:19:21.215
01:24:21.848 : en:01:24:21.848
01:30:05.317 : en:01:30:05.317
Свернуть
Скриншоты
Изображение
Изображение
Изображение
Изображение
Свернуть


Последний раз редактировалось krazz 2013-02-22 06:57, всего редактировалось 2 раз(а).
Не в сети
Профиль  
 Добавлено: 2013-02-22 02:58 (спустя 47 минут)
Модератор
Аватара пользователя
Стаж: 6 лет 7 месяцев
Возраст: 25
Сообщений: 7206
Спасибок: 33024
Лайков: 866
Релиз группы укажите.
Изображение & Изображение
Не в сети
Профиль  
Начать новую темуОтветить на тему  [ Сообщений: 2 ] 
Вы не можете начинать темы
Вы не можете отвечать на сообщения
Вы не можете редактировать свои сообщения
Вы не можете удалять свои сообщения