Правила форума

  • В этом разделе создание новых тем Запрещено.
  • Для создания новых тем пользуйтесь Корневым разделом DVD и HD фильмы.
Начать новую темуОтветить на тему  [ Сообщений: 5 ] 
Торрент файл
Размер: 5.05 GB • Зарегистрирован: 3 года 9 месяцев • Статус: Проверено
Скачан: 258 раз • Желающих скачать: 0 • Поблагодарили: 63 раза
 Раздают: 0  |  0 KB/s  ]   Качают: 0  |  0 KB/s  ] 
 Полного источника не было 22 часа 
Сообщения
 Добавлено: 2013-02-25 21:05
Модератор
Аватара пользователя
Стаж: 6 лет 10 месяцев
Возраст: 33
Сообщений: 5908
Спасибок: 61265
Лайков: 3540
Изображение

Муви 43
Movie 43


Год выпуска: 2013
Страна: США
Слоган: «Самая отвязная комедия Нового года»
Жанр: комедия
Продолжительность: 01:39:30
Перевод: Профессиональный (полное дублирование)
Авторский (Дмитрий Пучков (Гоблин))

Режиссер: Стивен Брилл, Питер Фаррелли, Боб Оденкирк
Сценарий: Уилл Кэрло, Стив Бэйкер, Джейкоб Флейшер, Патрик Форсберг, Мэтт Портной
Продюсер: Джон Пенотти, Чарльз Б. Весслер, Питер Фаррелли, Райан Кэвэна, Марк Амброзе
Оператор: Фрэнк Дж. ДеМарко, Стив Гэйнер, Мэтью Ф. Леонетти, Дарин Окада, Уильям Рексер
Композитор: Тайлер Бейтс, Кристоф Бек, Лео Биренберг, Уильям Гудрам, Дэйв Ходж
В ролях: Холли Берри, Джерард Батлер, Анна Фэрис, Хью Джекман, Джонни Ноксвил, Кристофер Минц-Плассе, Шонн Уильям Скотт, Эмма Стоун, Кейт Уинслет, Деннис Куэйд, Грег Киннер, Коммон
Бюджет: $6 000 000
Сборы в США: $8 787 211
Сборы в России: $8 047 435
Сборы в мире: $23 087 211
Мировая премьера: 11 января 2013
Релиз на DVD: 28 февраля 2013, «CP Дистрибуция»
Релиз на Blu-ray: 28 февраля 2013, «CP Дистрибуция»
Описание: 25 cуперзвезд первой величины - в комедийном проекте, который состоит из двух десятков мини-новелл с нескончаемым потоком шуток, гэгов, острот и пародий, о страстях и страстишках человеческих.

Изображение User Rating: 5.666 (13 482)
Изображение User Rating: 4.60 (7 079)
MPAA: R - Лицам до 17 лет обязательно присутствие взрослого
Раздача группы: Изображение
Изображение
Качество: BDRip, 720p
Формат: MKV
Видео: AVC; 1280x720 (16:9); 5844 Kbps; 24 fps; 0,264 bit/pixel
Аудио №1: русский; AC3; 640 Kbps; CBR; 6 ch
Аудио №2: русский; AC3; 640 Kbps; CBR; 6 ch

mediainfo
General
Unique ID : 204012888914646809111549407764026271052 (0x997B74039D8A5640B7948484059CA54C)
Complete name : E:\Epidemz\Muvi.43.2013.D.Gob.BDRip.720p_Epidemz.Net.mkv
Format : Matroska
Format version : Version 2
File size : 5.05 GiB
Duration : 1h 39mn
Overall bit rate : 7 269 Kbps
Encoded date : UTC 2013-02-25 15:15:27
Writing application : mkvmerge v5.2.0 ('I can't explain') built on Dec 18 2011 18:12:03
Writing library : libebml v1.2.3 + libmatroska v1.3.0

Video
ID : 1
Format : AVC
Format/Info : Advanced Video Codec
Format profile : High@L4.1
Format settings, CABAC : Yes
Format settings, ReFrames : 5 frames
Codec ID : V_MPEG4/ISO/AVC
Duration : 1h 39mn
Bit rate : 5 844 Kbps
Width : 1 280 pixels
Height : 720 pixels
Display aspect ratio : 16:9
Frame rate : 24.000 fps
Color space : YUV
Chroma subsampling : 4:2:0
Bit depth : 8 bits
Scan type : Progressive
Bits/(Pixel*Frame) : 0.264
Stream size : 4.06 GiB (80%)
Writing library : x264 core 129 r2245 bc13772
Encoding settings : cabac=1 / ref=5 / deblock=1:-1:-1 / analyse=0x3:0x113 / me=dia / subme=1 / psy=1 / psy_rd=1.00:0.15 / mixed_ref=1 / me_range=16 / chroma_me=1 / trellis=1 / 8x8dct=1 / cqm=0 / deadzone=21,11 / fast_pskip=1 / chroma_qp_offset=-1 / threads=12 / lookahead_threads=2 / sliced_threads=0 / nr=0 / decimate=1 / interlaced=0 / bluray_compat=0 / constrained_intra=0 / bframes=3 / b_pyramid=2 / b_adapt=1 / b_bias=0 / direct=1 / weightb=1 / open_gop=0 / weightp=2 / keyint=250 / keyint_min=24 / scenecut=40 / intra_refresh=0 / rc_lookahead=40 / rc=crf / mbtree=1 / crf=16.5 / qcomp=0.60 / qpmin=0 / qpmax=69 / qpstep=4 / ip_ratio=1.40 / aq=1:1.00
Language : English
Default : Yes
Forced : Yes

Audio #1
ID : 2
Format : AC-3
Format/Info : Audio Coding 3
Mode extension : CM (complete main)
Format settings, Endianness : Big
Codec ID : A_AC3
Duration : 1h 39mn
Bit rate mode : Constant
Bit rate : 640 Kbps
Channel(s) : 6 channels
Channel positions : Front: L C R, Side: L R, LFE
Sampling rate : 48.0 KHz
Bit depth : 16 bits
Compression mode : Lossy
Stream size : 456 MiB (9%)
Title : DUB
Language : Russian
Default : Yes
Forced : Yes

Audio #2
ID : 3
Format : AC-3
Format/Info : Audio Coding 3
Mode extension : CM (complete main)
Format settings, Endianness : Big
Codec ID : A_AC3
Duration : 1h 39mn
Bit rate mode : Constant
Bit rate : 640 Kbps
Channel(s) : 6 channels
Channel positions : Front: L C R, Side: L R, LFE
Sampling rate : 48.0 KHz
Bit depth : 16 bits
Compression mode : Lossy
Stream size : 456 MiB (9%)
Title : GOBLIN
Language : Russian
Default : No
Forced : No
Свернуть
"Знаете ли Вы, что..."
  • Работа над фильмом начиналась под руководством Overture Films. Позже фильмом занялась студия Relativity Media, а через несколько месяцев после этого Relativity Media купила Overture Films.
Свернуть
Скриншоты

Изображение
Изображение
Изображение
Свернуть
_________________
ИзображениеИзображение Изображение
Изображение
 tany1984 и di-ys1 нравится это.
Не в сети
Профиль  
 Добавлено: 2013-02-25 21:56 (спустя 50 минут)
Стаж: 6 лет 1 месяц
Сообщений: 26
дайте скорости плиз )
Не в сети
Профиль  
 Добавлено: 2013-02-25 21:57 (спустя 1 минута)
Аватара пользователя
Стаж: 9 лет 1 месяц
Возраст: 31
Сообщений: 982
Спасибок: 1800
Лайков: 17
Смотрел в камрипе, половина слов не понял и мало чего разглядел. Ща заценим.
Не в сети
Профиль  
 Добавлено: 2013-02-28 00:57 (спустя 2 дня 2 часа)
Аватара пользователя
Стаж: 8 лет 9 месяцев
Возраст: 28
Сообщений: 83
Лайков: 1
:-D :-D :-D :-D :-D :-D
Не в сети
Профиль  
 Добавлено: 2013-03-05 17:29 (спустя 5 дней)
Стаж: 8 лет
Сообщений: 33
Спасибок: 3
Большое спасибо за фильм!!! Очень классный))) ;;-)))
Не в сети
Профиль  
Начать новую темуОтветить на тему  [ Сообщений: 5 ] 
Вы не можете начинать темы
Вы не можете отвечать на сообщения
Вы не можете редактировать свои сообщения
Вы не можете удалять свои сообщения