Правила форума

  • В этом разделе создание новых тем Запрещено.
  • Для создания новых тем пользуйтесь Корневым разделом DVD и HD фильмы.
Начать новую темуОтветить на тему  [ Сообщений: 11 ] 
Торрент файл
Размер: 6.09 GB • Зарегистрирован: 3 года 9 месяцев • Статус: Проверено
Скачан: 436 раз • Желающих скачать: 0 • Поблагодарили: 90 раз
 Раздают: 0  |  0 KB/s  ]   Качают: 0  |  0 KB/s  ] 
 Полного источника не было 2 дня 5 часов 
Сообщения
 Добавлено: 2013-02-25 21:03
Аватара пользователя
Стаж: 5 лет 4 месяца
Возраст: 26
Сообщений: 1658
Спасибок: 45803
Лайков: 69
Муви 43 / Movie 43


«Самая отвязная комедия Нового года»



Изображение
Год выпуска: 2013
Страна: Изображение
Жанр: Комедия
Продолжительность: 01:39:30
Перевод: Дублированный [лицензия] / Авторский (одноголосый, Д. Гоблин) [лицензия]


Режиссёр: Стивен Брилл, Питер Фаррелли, Элизабет Бэнкс

Сценарий: Уилл Кэрло, Стив Бэйкер, Джейкоб Флейшер, Патрик Форсберг, Мэтт Портной, Роки Руссо

Продюсер: Джон Пенотти, Чарльз Б. Весслер, Питер Фаррелли, Райан Кэвэна

Оператор: Фрэнк Дж. ДеМарко, Стив Гэйнер, Мэтью Ф. Леонетти, Дарин Окада, Ньютон Томас Сигел

Композитор: Тайлер Бейтс, Кристоф Бек, Лео Биренберг

Xудожник: Тоби Корбетт, Джейд Хили, Нолан Хупер

В ролях: Джерард Батлер, Холли Берри, Анна Фэрис, Хью Джекман, Джонни Ноксвилл, Кристофер Минц-Плассе, Шонн Уильям Скотт, Эмма Стоун, Кейт Уинслет, Хлоя Моретц, Элизабет Бэнкс, Кристен Белл, Наоми Уоттс, Бобби Каннавейл, Ума Турман, Крис Прэтт, Джош Дюамель, Ричард Гир, Кейт Босворт, Патрик Варбертон, Лив Шрайбер, Джастин Лонг, Лесли Бибб, Джейсон Судейкис, Киран Калкин, Джек МакБрайер, Терренс Ховард, Тони Шэлоуб, Стивен Мерчант, Джимми Беннетт, Мэтт Уолш, Джереми Аллен Уайт, Аасиф Мандви, Мартин Клеббэ, Бет Литтлфорд, Эмили Элин Линд, Марк Л. Янг, Саид Бадрия, Джули Энн .

Описание: 25 cуперзвезд первой величины — в комедийном проекте, который состоит из двух десятков мини-новелл с нескончаемым потоком шуток, гэгов, острот и пародий, о страстях и страстишках человеческих.



Изображение



Бюджет: $6 000 000
Сборы в США: $8 787 211
Сборы в Мире: $23 087 211
Сборы в России: $8 047 435

Мировая премьера:11 января 2013.
Российский прокат:1 января 2013, «Парадиз»

Релиз на DVD:28 февраля 2013, «CP Дистрибуция».
Релиз на Blu-Ray:28 февраля 2013, «CP Дистрибуция».

Качество: BDRip (1080p)
Формат: MKV
Видео: MPEG-4 AVC, 7301 Кбит/с, 1920x1080
Аудио: AC3, 6 ch, 640 Кбит/с
Аудио 2: AC3, 6 ch, 640 Кбит/с




MediaInfo
Общее
Уникальный идентификатор : 243448369062304858563303409027158136404 (0xB726734CB068E2709B1CC871FA945654)
Полное имя : C:\Users\Я\Desktop\Muvi.43.2013.D.BDRip.1080p.mkv
Формат : Matroska
Версия формата : Version 4 / Version 2
Размер файла : 6,09 Гбайт
Продолжительность : 1 ч. 39 м.
Общий поток : 8755 Кбит/сек
Дата кодирования : UTC 2010-02-22 21:41:31
Программа кодирования : mkvmerge v5.9.0 ('On The Loose') built on Dec 9 2012 15:37:01
Библиотека кодирования : libebml v1.3.0 + libmatroska v1.4.0

Видео
Идентификатор : 1
Формат : AVC
Формат/Информация : Advanced Video Codec
Профиль формата : High@L4.1
Параметр CABAC формата : Да
Параметр ReFrames формата : 4 кадра
Идентификатор кодека : V_MPEG4/ISO/AVC
Продолжительность : 1 ч. 39 м.
Битрейт : 7301 Кбит/сек
Ширина : 1920 пикселей
Высота : 1080 пикселей
Соотношение сторон : 16:9
Режим частоты кадров : Постоянный
Частота кадров : 24,000 кадра/сек
Цветовое пространство : YUV
Субдискретизация насыщенности : 4:2:0
Битовая глубина : 8 бит
Тип развёртки : Прогрессивная
Бит/(Пиксели*Кадры) : 0.147
Размер потока : 5,07 Гбайт (83%)
Библиотека кодирования : x264 core 129 r2245 bc13772
Настройки программы : cabac=1 / ref=4 / deblock=1:-1:-1 / analyse=0x3:0x113 / me=dia / subme=1 / psy=1 / psy_rd=1.00:0.15 / mixed_ref=1 / me_range=16 / chroma_me=1 / trellis=1 / 8x8dct=1 / cqm=0 / deadzone=21,11 / fast_pskip=1 / chroma_qp_offset=-1 / threads=12 / lookahead_threads=2 / sliced_threads=0 / nr=0 / decimate=1 / interlaced=0 / bluray_compat=0 / constrained_intra=0 / bframes=3 / b_pyramid=2 / b_adapt=1 / b_bias=0 / direct=1 / weightb=1 / open_gop=0 / weightp=2 / keyint=250 / keyint_min=24 / scenecut=40 / intra_refresh=0 / rc_lookahead=40 / rc=crf / mbtree=1 / crf=20.0 / qcomp=0.60 / qpmin=0 / qpmax=69 / qpstep=4 / ip_ratio=1.40 / aq=1:1.00
Язык : English
Default : Да
Forced : Нет

Аудио #1
Идентификатор : 2
Формат : AC-3
Формат/Информация : Audio Coding 3
Расширение режима : CM (complete main)
Параметр Endianness формата : Big
Идентификатор кодека : A_AC3
Продолжительность : 1 ч. 39 м.
Вид битрейта : Постоянный
Битрейт : 640 Кбит/сек
Каналы : 6 каналов
Расположение каналов : Front: L C R, Side: L R, LFE
Частота : 48,0 КГц
Битовая глубина : 16 бит
Метод сжатия : С потерями
Размер потока : 456 Мбайт (7%)
Заголовок : DUB
Язык : Russian
Default : Да
Forced : Нет

Аудио #2
Идентификатор : 3
Формат : AC-3
Формат/Информация : Audio Coding 3
Расширение режима : CM (complete main)
Параметр Endianness формата : Big
Идентификатор кодека : A_AC3
Продолжительность : 1 ч. 39 м.
Вид битрейта : Постоянный
Битрейт : 640 Кбит/сек
Каналы : 6 каналов
Расположение каналов : Front: L C R, Side: L R, LFE
Частота : 48,0 КГц
Битовая глубина : 16 бит
Метод сжатия : С потерями
Размер потока : 456 Мбайт (7%)
Заголовок : GOBLIN
Язык : Russian
Default : Нет
Forced : Нет



Свернуть

Трейлер
Свернуть

Скриншоты
Изображение
Изображение
Изображение
Свернуть
_________________
S.T.A.L.K.E.R.: Lost Alpha


Последний раз редактировалось R.G. Механики 2013-03-09 11:16, всего редактировалось 3 раз(а).
Не в сети
Профиль  
 Добавлено: 2013-02-25 21:07 (спустя 4 минуты)
Модератор
Аватара пользователя
Стаж: 6 лет 10 месяцев
Возраст: 33
Сообщений: 5908
Спасибок: 61239
Лайков: 3540
Перевод: Дублированный [лицензия] / Авторский (одноголосый, Д. Гоблин) [лицензия]
_________________
ИзображениеИзображение Изображение
Изображение
Не в сети
Профиль  
 Добавлено: 2013-02-26 17:32 (спустя 20 часов)
Аватара пользователя
Стаж: 5 лет 4 месяца
Возраст: 26
Сообщений: 1658
Спасибок: 45803
Лайков: 69
rotametr
:-ok-:
_________________
S.T.A.L.K.E.R.: Lost Alpha
Не в сети
Профиль  
 Добавлено: 2013-02-27 11:54 (спустя 18 часов)
Console R.G.
Аватара пользователя
Стаж: 8 лет 2 месяца
Возраст: 22
Сообщений: 460
Спасибок: 2125
Лайков: 1
В дубляже, фильм днище, юмор ущербный, пересмотрю в гоблине, может лучше будет
Не в сети
Профиль  
 Добавлено: 2013-02-27 15:51 (спустя 3 часа)
Аватара пользователя
Стаж: 8 лет 3 месяца
Сообщений: 188
Спасибок: 717
McKot
Смотри в Гоблине, я ржал до слёз!
Не в сети
Профиль  
 Добавлено: 2013-02-27 23:41 (спустя 7 часов)
Аватара пользователя
Стаж: 6 лет 8 месяцев
Сообщений: 922
с котом явно перебор был :)
Не в сети
Профиль  
 Добавлено: 2013-02-28 11:11 (спустя 11 часов)
Аватара пользователя
Стаж: 7 лет 10 месяцев
Сообщений: 31
Тупое смешное кино
Не в сети
Профиль  
 Добавлено: 2013-02-28 14:05 (спустя 2 часа 54 минуты)
Аватара пользователя
Стаж: 8 лет 9 месяцев
Сообщений: 1170
Спасибок: 1294
Лайков: 7
6 лямов бюджет? даже по ляму на звезду не хватит, не то чтобы остальным и на прочие расходы... боюсь смотреть
Не в сети
Профиль  
 Добавлено: 2013-02-28 19:06 (спустя 5 часов)
Аватара пользователя
Стаж: 6 лет 3 месяца
Возраст: 25
Сообщений: 50
Еле нашёл Ричарда Гира в списке актёров, видимо чувак уже не котируется :-D
Не в сети
Профиль  
 Добавлено: 2013-03-03 10:15 (спустя 2 дня 15 часов)
Console R.G.
Аватара пользователя
Стаж: 8 лет 2 месяца
Возраст: 22
Сообщений: 460
Спасибок: 2125
Лайков: 1
xdenverx
Даже Гоблин не помог. Мат ничего не изменил :(
Не в сети
Профиль  
 Добавлено: 2013-03-05 22:01 (спустя 2 дня 11 часов)
Стаж: 7 лет 8 месяцев
Сообщений: 105

McKot:

В дубляже, фильм днище, юмор ущербный, пересмотрю в гоблине, может лучше будет
соглашусь, из всего фильма 2-3 смешных сцены, остальное хлам
Не в сети
Профиль  
Начать новую темуОтветить на тему  [ Сообщений: 11 ] 
Вы не можете начинать темы
Вы не можете отвечать на сообщения
Вы не можете редактировать свои сообщения
Вы не можете удалять свои сообщения
cron