Правила форума

  • В этом разделе создание новых тем Запрещено.
  • Для создания новых тем пользуйтесь Корневым разделом DVD и HD фильмы.
Начать новую темуОтветить на тему  [ Сообщений: 6 ] 
Торрент файл
Размер: 13.58 GB • Зарегистрирован: 3 года 9 месяцев • Статус: Проверено
Скачан: 222 раза • Желающих скачать: 0 • Поблагодарили: 43 раза
 Раздают: 0  |  0 KB/s  ]   Качают: 0  |  0 KB/s  ] 
 Полного источника не было 8 месяцев 
Сообщения
 Добавлено: 2013-02-26 00:34
Аватара пользователя
Стаж: 9 лет 1 месяц
Сообщений: 7922
Спасибок: 122118
Лайков: 1191
Муви 43 / Movie 43

«Самая отвязная комедия Нового года»

Изображение


Год выпуска: 2013
Страна: Изображение США
Жанр: комедия
Продолжительность: 01:39:30
Перевод: Профессиональный (полное дублирование) [Лицензия] + Авторский, одноголосый [Гоблин]


Режиссёр: Стивен Брилл, Питер Фаррелли, Элизабет Бэнкс
Сценарист: Уилл Кэрло, Стив Бэйкер, Джейкоб Флейшер
Продюсер: Питер Фаррелли, Райан Кэвэна, Джон Пенотти
Оператор: Фрэнк Дж. ДеМарко, Стив Гэйнер, Мэтью Ф. Леонетти
Композитор: Бейтс, Кристоф Бек, Лео Биренберг

В ролях: Холли Берри, Джерард Батлер, Анна Фэрис, Хью Джекман, Джонни Ноксвилл, Кристофер Минц-Плассе, Шонн Уильям Скотт, Эмма Стоун, Кейт Уинслет, Хлоя Моретц, Элизабет Бэнкс, Кристен Белл, Наоми Уоттс, Бобби Каннавейл, Ума Турман, Крис Прэтт, Джош Дюамель, Ричард Гир, Кейт Босворт, Патрик Варбертон, Лив Шрайбер, Джастин Лонг, Лесли Бибб, Джейсон Судейкис, Киран Калкин, Джек МакБрайер, Терренс Ховард, Тони Шэлоуб, Стивен Мерчант, Джимми Беннетт, Мэтт Уолш, Джереми Аллен Уайт, Аасиф Мандви, Мартин Клеббэ, Бет Литтлфорд, Эмили Элин Линд, Марк Л. Янг, Саид Бадрия, Джули Энн

Описание: 25 cуперзвезд первой величины — в комедийном проекте, который состоит из двух десятков мини-новелл с нескончаемым потоком шуток, гэгов, острот и пародий, о страстях и страстишках человеческих.

Изображение Изображение

Качество: BD-Remux, 1080p
Формат: Matroska
Видео: MPEG-4 AVC, 14.8 Мбит/с, 1920x1080
Аудио №1: Русский (AC3, 6 ch, 640 Кбит/с) Дубляж
Аудио №2: Русский (AC3, 6 ch, 640 Кбит/с) Гоблин
Аудио №3: Русский (DTS-HD MA, 6 ch, 1873 Кбит/с) Дубляж
Аудио №4: Русский (DTS-HD МА, 6 ch, 1810 Кбит/с) Гоблин

MediaInfo
Общее
Уникальный идентификатор : 195670675875096581551061179520262786424 (0x9334CD27EFC353268062E07EB626CD78)
Полное имя : I:\Movie 43.1080p.Remux.nntt.org.mkv
Формат : Matroska
Версия формата : Version 2
Размер файла : 13,6 Гбайт
Продолжительность : 1 ч. 39 м.
Режим общего битрейта : Переменный
Общий поток : 19,5 Мбит/сек
Название фильма : nntt
Дата кодирования : UTC 2013-02-25 21:51:29
Программа кодирования : mkvmerge v5.7.0 ('The Whirlwind') built on Jul 29 2012 15:12:35
Библиотека кодирования : libebml v1.2.3 + libmatroska v1.3.0

Видео
Идентификатор : 1
Формат : AVC
Формат/Информация : Advanced Video Codec
Профиль формата : High@L4.1
Параметр CABAC формата : Да
Параметр ReFrames формата : 4 кадра
Идентификатор кодека : V_MPEG4/ISO/AVC
Продолжительность : 1 ч. 39 м.
Вид битрейта : Переменный
Максимальный битрейт : 30,0 Мбит/сек
Ширина : 1920 пикселей
Высота : 1080 пикселей
Соотношение сторон : 16:9
Режим частоты кадров : Постоянный
Частота кадров : 24,000 кадра/сек
Стандарт вещания : PAL
Цветовое пространство : YUV
Субдискретизация насыщенности : 4:2:0
Битовая глубина : 8 бит
Тип развёртки : Прогрессивная
Default : Да
Forced : Нет
Основные цвета : BT.709
Характеристики трансфера : BT.709
Коэффициенты матрицы : BT.709

Аудио #1
Идентификатор : 2
Формат : AC-3
Формат/Информация : Audio Coding 3
Расширение режима : CM (complete main)
Параметр Endianness формата : Big
Идентификатор кодека : A_AC3
Продолжительность : 1 ч. 39 м.
Вид битрейта : Постоянный
Битрейт : 640 Кбит/сек
Каналы : 6 каналов
Расположение каналов : Front: L C R, Side: L R, LFE
Частота : 48,0 КГц
Битовая глубина : 16 бит
Метод сжатия : С потерями
Размер потока : 456 Мбайт (3%)
Заголовок : DUB
Язык : Russian
Default : Да
Forced : Да

Аудио #2
Идентификатор : 3
Формат : AC-3
Формат/Информация : Audio Coding 3
Расширение режима : CM (complete main)
Параметр Endianness формата : Big
Идентификатор кодека : A_AC3
Продолжительность : 1 ч. 39 м.
Вид битрейта : Постоянный
Битрейт : 640 Кбит/сек
Каналы : 6 каналов
Расположение каналов : Front: L C R, Side: L R, LFE
Частота : 48,0 КГц
Битовая глубина : 16 бит
Метод сжатия : С потерями
Размер потока : 456 Мбайт (3%)
Заголовок : GOBLIN
Язык : Russian
Default : Нет
Forced : Нет

Аудио #3
Идентификатор : 4
Формат : DTS
Формат/Информация : Digital Theater Systems
Профиль формата : MA / Core
Режим : 16
Параметр Endianness формата : Big
Идентификатор кодека : A_DTS
Продолжительность : 1 ч. 39 м.
Вид битрейта : Переменный
Битрейт : Неизвестно / 1509 Кбит/сек
Каналы : 6 каналов
Расположение каналов : Front: L C R, Side: L R, LFE
Частота : 48,0 КГц
Битовая глубина : 16 бит
Метод сжатия : Без потерь / Lossy
Язык : Russian
Default : Нет
Forced : Нет

Аудио #4
Идентификатор : 5
Формат : DTS
Формат/Информация : Digital Theater Systems
Профиль формата : MA / Core
Режим : 16
Параметр Endianness формата : Big
Идентификатор кодека : A_DTS
Продолжительность : 1 ч. 39 м.
Вид битрейта : Переменный
Битрейт : Неизвестно / 1509 Кбит/сек
Каналы : 6 каналов
Расположение каналов : Front: L C R, Side: L R, LFE
Частота : 48,0 КГц
Битовая глубина : 16 бит
Метод сжатия : Без потерь / Lossy
Язык : Russian
Default : Нет
Forced : Нет

Меню
00:00:00.000 : en:00:00:00.000
00:06:05.416 : en:00:06:05.416
00:14:02.416 : en:00:14:02.416
00:20:07.791 : en:00:20:07.791
00:29:12.125 : en:00:29:12.125
00:34:10.750 : en:00:34:10.750
00:44:12.000 : en:00:44:12.000
00:50:27.333 : en:00:50:27.333
00:57:01.833 : en:00:57:01.833
01:03:44.541 : en:01:03:44.541
01:11:02.583 : en:01:11:02.583
01:16:51.500 : en:01:16:51.500
01:22:03.000 : en:01:22:03.000
01:24:36.833 : en:01:24:36.833
01:31:12.833 : en:01:31:12.833
01:39:30.500 : en:01:39:30.500
Свернуть
Знаете ли вы, что...
Работа над фильмом начиналась под руководством Overture Films. Позже фильмом занялась студия Relativity Media, а через несколько месяцев после этого Relativity Media купила Overture Films.
Свернуть
Скриншоты
ИзображениеИзображение
Изображение
Изображение
Изображение
Свернуть
Не в сети
Профиль  
 Добавлено: 2013-02-26 21:42 (спустя 21 час)
Стаж: 5 лет 3 месяца
Сообщений: 150
Лайков: 1
Что то...как то...не очень((
Не в сети
Профиль  
 Добавлено: 2013-03-01 18:54 (спустя 2 дня 21 час)
Аватара пользователя
Стаж: 8 лет 3 месяца
Возраст: 27
Сообщений: 64
Спасибок: 130
Лайков: 1
так себе. от нечего делать можно разок посмотреть, смотрел с гоблином можно и поржать на некоторых моментах :-D
_________________
Изображение
Не в сети
Профиль  
 Добавлено: 2013-03-03 09:33 (спустя 1 день 14 часов)
Аватара пользователя
Стаж: 6 лет 3 месяца
Сообщений: 26
полная хрень, лажа и отстой...чисто американская комедия, только они снимают подобный бред!!! лишь бы наш кинематограф не дошёл до такого :hi_hi_hi: но это только моё мнение, кому-то наверняка понравилось :-D
Не в сети
Профиль  
 Добавлено: 2013-03-12 07:49 (спустя 8 дней)
Top-seeder
Стаж: 8 лет 10 месяцев
Сообщений: 80
Лайков: 5
Кал редкостный.
Не в сети
Профиль  
 Добавлено: 2014-05-07 11:43 (спустя 1 год 1 месяц)
Аватара пользователя
Стаж: 5 лет 5 месяцев
Возраст: 23
Сообщений: 484
Спасибок: 1403
Лайков: 1
встаньте на раздачу
Не в сети
Профиль  
Начать новую темуОтветить на тему  [ Сообщений: 6 ] 
Вы не можете начинать темы
Вы не можете отвечать на сообщения
Вы не можете редактировать свои сообщения
Вы не можете удалять свои сообщения