Правила форума

  • В этом разделе создание новых тем Запрещено.
  • Для создания новых тем пользуйтесь Корневым разделом DVD и HD фильмы.
Начать новую темуОтветить на тему  [ 1 сообщение ] 
Торрент файл
Размер: 3.38 GB • Зарегистрирован: 3 года 9 месяцев • Статус: Проверено
Скачан: 29 раз • Желающих скачать: 0 • Поблагодарили: 7 раз
 Раздают: 0  |  0 KB/s  ]   Качают: 0  |  0 KB/s  ] 
 Полного источника не было 2 года 7 месяцев 
Сообщения
 Добавлено: 2013-02-13 16:05
Книголюб
Аватара пользователя
Стаж: 7 лет 2 месяца
Сообщений: 2823
Спасибок: 48823
Лайков: 73
На цепи
Chained

Изображение


Год выпуска: 2011
Страна: Канада
Жанр: ужасы, триллер
Продолжительность: 01:34:17
Перевод: Профессиональный (многоголосый закадровый)

Режиссёр: Дженнифер Чэмберс Линч
В ролях: Винсент Д'Онофрио, Джулия Ормонд, Имон Фэррен, Джина Филипс, Джейк Уэбер, Конор Лесли, Ивэн Бёрд, Эми Матисио
Описание: Восьмилетний паренек Тим и его мать подсаживаются в такси к Бобу — невменяемому водителю, как раз подыскивающего себе новую жертву. После убийства женщины Тим становится марионеткой в руках психа, вынуждающего его хоронить тела. Хватит ли подростку мужества разорвать ужасную связь судьбы, все крепче стягивающую его с убийцей…
Рейтинг MPAA: Рейтинг NC-17 (Лица, не достигшие 17 лет, на фильм не допускаются)
Мировая премьера: 5 августа 2012
Изображение 6.206606

Качество:BDRip 720p
Формат: MKV
Видео кодек:H.264
Видео: AVC, ~3900 Кбит/с, 1280x528 4 000 Kbps
Аудио #1: Rus:Dolby AC3 48000Hz 6ch 384 Kbps
Аудио #:2 Eng:DTS 48000Hz 6ch 755 Kbps
MediaInfo
Unique ID : 205674781294616760988088188379742576030 (0x9ABB85A27387173AA5A0952B40CF9D9E)
Complete name : K:\Torrent1\Na cepi.mkv
Format : Matroska
Format version : Version 4 / Version 2
File size : 3.38 GiB
Duration : 1h 34mn
Overall bit rate : 5 137 Kbps
Movie name : BaibaKo.tv presents - На цепи
Encoded date : UTC 2010-02-22 21:41:31
Writing application : mkvmerge v5.9.0 ('On The Loose') built on Dec 9 2012 15:37:01
Writing library : libebml v1.3.0 + libmatroska v1.4.0

Video
ID : 1
Format : AVC
Format/Info : Advanced Video Codec
Format profile : High@L4.0
Format settings, CABAC : Yes
Format settings, ReFrames : 10 frames
Codec ID : V_MPEG4/ISO/AVC
Duration : 1h 34mn
Bit rate : 4 000 Kbps
Width : 1 280 pixels
Height : 528 pixels
Display aspect ratio : 2.40:1
Frame rate mode : Variable
Frame rate : 23.976 fps
Color space : YUV
Chroma subsampling : 4:2:0
Bit depth : 8 bits
Scan type : Progressive
Bits/(Pixel*Frame) : 0.247
Stream size : 2.56 GiB (76%)
Writing library : x264 core 112
Encoding settings : cabac=1 / ref=10 / deblock=1:-3:-3 / analyse=0x3:0x133 / me=umh / subme=10 / psy=1 / psy_rd=1.00:0.02 / mixed_ref=1 / me_range=64 / chroma_me=1 / trellis=2 / 8x8dct=1 / cqm=0 / deadzone=21,11 / fast_pskip=1 / chroma_qp_offset=-3 / threads=6 / sliced_threads=0 / nr=0 / decimate=1 / interlaced=0 / constrained_intra=0 / bframes=10 / b_pyramid=2 / b_adapt=2 / b_bias=0 / direct=3 / weightb=1 / open_gop=0 / weightp=2 / keyint=240 / keyint_min=23 / scenecut=40 / intra_refresh=0 / rc_lookahead=100 / rc=2pass / mbtree=1 / bitrate=4000 / ratetol=1.0 / qcomp=0.60 / qpmin=3 / qpmax=51 / qpstep=4 / cplxblur=20.0 / qblur=0.5 / ip_ratio=1.40 / aq=1:1.00
Language : English
Default : Yes
Forced : No
Color primaries : BT.709-5, BT.1361, IEC 61966-2-4, SMPTE RP177
Transfer characteristics : BT.709-5, BT.1361
Matrix coefficients : BT.709-5, BT.1361, IEC 61966-2-4 709, SMPTE RP177

Audio #1
ID : 2
Format : AC-3
Format/Info : Audio Coding 3
Mode extension : CM (complete main)
Codec ID : A_AC3
Duration : 1h 34mn
Bit rate mode : Constant
Bit rate : 384 Kbps
Channel(s) : 6 channels
Channel positions : Front: L C R, Side: L R, LFE
Sampling rate : 48.0 KHz
Bit depth : 16 bits
Compression mode : Lossy
Stream size : 259 MiB (7%)
Title : Rus BaibaKo.tv DD5.1
Language : Russian
Default : Yes
Forced : No

Audio #2
ID : 3
Format : DTS
Format/Info : Digital Theater Systems
Codec ID : A_DTS
Duration : 1h 34mn
Bit rate mode : Constant
Bit rate : 755 Kbps
Channel(s) : 6 channels
Channel positions : Front: L C R, Side: L R, LFE
Sampling rate : 48.0 KHz
Bit depth : 24 bits
Compression mode : Lossy
Stream size : 508 MiB (15%)
Title : Eng DTS 5.1
Language : English
Default : No
Forced : No

Menu
00:00:00.000 : en:Chapter 1
00:02:29.483 : en:Chapter 2
00:07:33.453 : en:Chapter 3
00:11:40.700 : en:Chapter 4
00:16:04.839 : en:Chapter 5
00:20:46.704 : en:Chapter 6
00:22:52.037 : en:Chapter 7
00:29:29.017 : en:Chapter 8
00:33:36.932 : en:Chapter 9
00:38:38.358 : en:Chapter 10
00:42:57.116 : en:Chapter 11
00:48:35.037 : en:Chapter 12
00:53:30.374 : en:Chapter 13
00:57:40.999 : en:Chapter 14
01:01:51.875 : en:Chapter 15
01:07:21.037 : en:Chapter 16
01:12:53.911 : en:Chapter 17
01:18:33.000 : en:Chapter 18
01:24:15.259 : en:Chapter 19
01:31:25.855 : en:Chapter 20


Свернуть

Скриншоты
Изображение
Изображение
Изображение
Свернуть
Не в сети
Профиль  
Начать новую темуОтветить на тему  [ 1 сообщение ] 
Вы не можете начинать темы
Вы не можете отвечать на сообщения
Вы не можете редактировать свои сообщения
Вы не можете удалять свои сообщения