Правила форума

  • В этом разделе создание новых тем Запрещено.
  • Для создания новых тем пользуйтесь Корневым разделом DVD и HD фильмы.
Начать новую темуОтветить на тему  [ Сообщений: 2 ] 
Торрент файл
Размер: 4.37 GB • Зарегистрирован: 4 года • Статус: # Сомнительно
Скачан: 26 раз • Желающих скачать: 0 • Поблагодарили: 5 раз
 Раздают: 0  |  0 KB/s  ]   Качают: 0  |  0 KB/s  ] 
 Полного источника не было 1 год 6 месяцев 
Сообщения
 Добавлено: 2012-11-11 21:40
Аватара пользователя
Стаж: 7 лет 4 месяца
Возраст: 21
Сообщений: 419
Спасибок: 12706
Лайков: 18
Изображение
На дороге / On the Road

«Навстречу самому себе»

Год выпуска: 2012
Страна: Франция, Великобритания, США, Бразилия
Жанр: Драма, приключения
Продолжительность: 02:19:42
Перевод: Профессиональный (полное дублирование) [Лицензия]

Режиссер: Уолтер Саллес
Сценарий: Хосе Ривера, Джек Керуак
Продюсер: Ребекка Йелдхэм, Шарль Жийибер, Натанаэль Кармиц
Оператор: Эрик Готье
Композитор: Густаво Сантаолайя

В ролях: Гаррет Хедлунд, Сэм Райли, Кристен Стюарт, Эми Адамс, Том Стёрридж, Дэнни Морган, Алиси Брага, Элизабет Мосс, Кирстен Данст, Вигго Мортенсен

Описание: После смерти отца начинающий нью-йоркский писатель Сэл Парадайз знакомится с молодым и очаровательным Дином Мориарти, только что вышедшим из тюрьмы и женатым на соблазнительной красотке Марилу. Они мгновенно становятся неразлучными друзьями. Стремясь к свободе, Сэл, Дин и Марилу порывают с условностями жизни и отправляются в путешествие навстречу миру, людям и самим себе.

Раздача: Изображение


Изображение

Бюджет: $25 000 000
Сборы в мире: $3 794 312
Сборы в России: $190 842
Мировая премьера: 23 мая 2012
Премьера РФ: 4 октября 2012, «Другое кино»
Релиз на DVD: 7 ноября 2012, «Кармен Видео»
Релиз на Blu-Ray: 7 ноября 2012, «Кармен Видео»

Качество: BDRip [720p]
Формат: Matroska
Видео: 1280x544, 4090 Кбит/сек, 24,000 кадр/сек, AVC, x264, 2,35:1, 0.245 Бит/[Пиксели*Кадры], 2pass
Аудио: AC-3, 384 Кбит/сек, 6 канала(ов), 48,0 КГц

Изображение

Награды:
    Изображение
  • Каннский кинофестиваль 2012:
    >>Номинации (1):
    Золотая пальмовая ветвь

Свернуть


Знаете ли Вы, что...
  • Фильм основан на книге Джека Керуака «В дороге» написанной в 1951 году (опубликована в 1957).
  • 8 мая 2012 года дистрибьюторами фильма в США стали «IFC Films», «Sundance Selects» и «AMC».
  • Кристен Стюарт согласилась на гонорар меньше чем $200,000, после того как бюджет фильма был резко сокращен. Стюарт осталась преданной роли Марилу из-за того, что ей очень сильно нравится оригинальный роман Джека Керуака.
  • Съемки начались в августе 2010 года в Монреале, Канада. Из Монреаля затем переместились в Квебек, Калгари, Мексику, Аризону, Луизиану, Калифорнию, Аргентину и в Чили.
  • Перед началом съемок режиссер Уолтер Саллес заставил команду актеров три недели жить в «лагере битников». Кристен Стюарт описала это как три недели чтения литературы о поколении битников и прослушивания аудио-интервью Джека Керуака.
  • Джонни Депп отказался от роли Сэла Парадайз, когда фильм был еще в стадии разработки в начале 90-х годов.
    На роль Марилу рассматривалась Линдси Лохан.
  • Персонаж Вигго Мортенсена основан на писателе Уильяме Берроузе. По его произведению «Голый завтрак» был снят фильм «Обед нагишом» (1991) Дэвидом Кроненбергом.
  • Люди не вели обратный отсчет на Новый Год в 1949 году. Эта тенденция началась в 1970-х, когда появились цифровые часы..
Свернуть


MediaInfo
Общее
Уникальный идентификатор : 206024925220300974475816679201479764527 (0x9AFEF5101E3847BE8B9C1D9E0AF2AA2F)
Полное имя : E:ЗагрузкиOn.the.Road.2012.x264.BDRip.720p.DUB.mkv
Формат : Matroska
Версия формата : Version 2
Размер файла : 4,37 Гбайт
Продолжительность : 2 ч. 19 м.
Общий поток : 4474 Кбит/сек
Дата кодирования : UTC 2012-11-11 15:46:11
Программа кодирования : mkvmerge v5.5.0 ('Healer') built on Apr 6 2012 21:43:24
Библиотека кодирования : libebml v1.2.3 + libmatroska v1.3.0

Видео
Идентификатор : 1
Формат : AVC
Формат/Информация : Advanced Video Codec
Профиль формата : High@L3.1
Параметр CABAC формата : Да
Параметр ReFrames формата : 4 кадра
Идентификатор кодека : V_MPEG4/ISO/AVC
Продолжительность : 2 ч. 19 м.
Битрейт : 4090 Кбит/сек
Ширина : 1280 пикселей
Высота : 544 пикселя
Соотношение сторон : 2,35:1
Соотношение сторон в оригинале : 2,35:1
Частота кадров : 24,000 кадра/сек
Цветовое пространство : YUV
Субдискретизация насыщенности : 4:2:0
Битовая глубина : 8 бит
Тип развёртки : Прогрессивная
Бит/(Пиксели*Кадры) : 0.245
Размер потока : 3,90 Гбайт (89%)
Заголовок : На дороге
Библиотека кодирования : x264 core 129 r2230 1cffe9f
Настройки программы : cabac=1 / ref=4 / deblock=1:0:0 / analyse=0x3:0x133 / me=hex / subme=7 / psy=1 / psy_rd=1.00:0.00 / mixed_ref=1 / me_range=16 / chroma_me=1 / trellis=1 / 8x8dct=1 / cqm=0 / deadzone=21,11 / fast_pskip=1 / chroma_qp_offset=-2 / threads=12 / lookahead_threads=2 / sliced_threads=0 / nr=0 / decimate=1 / interlaced=0 / bluray_compat=0 / constrained_intra=0 / bframes=3 / b_pyramid=2 / b_adapt=1 / b_bias=0 / direct=1 / weightb=1 / open_gop=0 / weightp=2 / keyint=240 / keyint_min=24 / scenecut=40 / intra_refresh=0 / rc_lookahead=40 / rc=2pass / mbtree=1 / bitrate=4090 / ratetol=1.0 / qcomp=0.60 / qpmin=10 / qpmax=51 / qpstep=4 / cplxblur=20.0 / qblur=0.5 / ip_ratio=1.40 / aq=1:1.00
Язык : English
Default : Да
Forced : Нет

Аудио
Идентификатор : 2
Формат : AC-3
Формат/Информация : Audio Coding 3
Расширение режима : CM (complete main)
Идентификатор кодека : A_AC3
Продолжительность : 2 ч. 19 м.
Вид битрейта : Постоянный
Битрейт : 384 Кбит/сек
Каналы : 6 каналов
Расположение каналов : Front: L C R, Side: L R, LFE
Частота : 48,0 КГц
Битовая глубина : 16 бит
Метод сжатия : С потерями
Размер потока : 384 Мбайт (9%)
Заголовок : Дублированное [лицензия]
Язык : Russian
Default : Да
Forced : Нет
Свернуть


Скриншоты:


Изображение


Изображение


Изображение


Изображение


Свернуть
Не в сети
Профиль  
 Добавлено: 2012-11-11 22:43 (спустя 1 час 2 минуты)
Стаж: 6 лет 5 месяцев
Сообщений: 175
Лайков: 2
Спасибо, рекомендую к просмотру отличный фильм, похож немного на Арт-хаус, а ещё про приключения в этом стиле есть.
Не в сети
Профиль  
Начать новую темуОтветить на тему  [ Сообщений: 2 ] 
Вы не можете начинать темы
Вы не можете отвечать на сообщения
Вы не можете редактировать свои сообщения
Вы не можете удалять свои сообщения