Правила форума

  • В этом разделе создание новых тем Запрещено.
  • Для создания новых тем пользуйтесь Корневым разделом DVD и HD фильмы.
Начать новую темуОтветить на тему  [ Сообщений: 2 ] 
Торрент файл
Размер: 13.93 GB • Зарегистрирован: 4 года 6 месяцев • Статус: Проверено
Скачан: 167 раз • Желающих скачать: 0 • Поблагодарили: 37 раз
 Раздают: 0  |  0 KB/s  ]   Качают: 0  |  0 KB/s  ] 
 Полного источника не было 2 года 1 месяц 
Сообщения
 Добавлено: 2012-05-12 10:46
Аватара пользователя
Стаж: 8 лет 9 месяцев
Сообщений: 59
Спасибок: 336
На грани / Man on a Ledge

Изображение


Год выпуска: 2012
Страна: США (Summit Entertainment)
Слоган: «Только невиновного можно загнать так высоко»
Жанр: Триллер, Криминал
Продолжительность: 01:42:23
Перевод: Профессиональный (дубляж)
Субтитры: Русские, Английские

Режиссёр: Асгер Лет / Asger Leth
Сценарист: Пабло Ф. Фенджвес
Продюсер: Лоренцо Ди Бонавентура, Марк Вахрадян, Джэйк Майерс
Оператор: Пол Кэмерон
Композитор: Генри Джекман
В ролях: Сэм Уортингтон, Элизабет Бэнкс, Джейми Белл, Энтони Маки, Генезис Родригез, Эд Харрис, Мэнди Гонзалес, Дж. Смит-Камерон, Патрик Коллинз
Описание: Экс-полицейский, обвиняемый в преступлении, которого он якобы не совершал, собирается покончить жизнь самоубийством, сбросившись с крыши одного из отелей на Манхэттене. С ним в переговоры вступает психолог нью-йоркской полиции. Напряжение нарастает с каждой минутой, на площадь стягиваются наряды спецподразделений, толпа оглашается женскими криками. А в это время на месте происшествия, прямо под носом у полиции, совершается грандиозное ограбление века: неизвестные похищают уникальные бриллианты…
Рейтинг MPAA: Рейтинг PG-13 (Дети до 13 лет допускаются на фильм только с родителями)
Мировая премьера: 26 января 2012
Премьера в России: 2 февраля 2012
Бюджет: $42 000 000
Кассовые сборы: $42 644 373
Изображение Изображение

Качество: BDRip 1080p [HDChina]
Формат: MKV
Видео кодек: AVC,1920x800,17600Kbps,23.976fps
Аудио кодек: AC3 (Dolby Digital)
Видео: 1920x800,,23.976fps
Аудио #1: Russian:48 kHz, AC3, 3/2 (L,C,R,l,r) + LFE ch, ~384.00 kbps avg [Профессиональный (дубляж)]
Аудио #2: English: 48 kHz, DTS, 3/2 (L,C,R,l,r) + LFE ch, ~1536.00 kbps avg
Субтитры: Русские, Английские
Изображение
Скриншоты
Изображение
Изображение
Изображение
Свернуть


"MI"
General
Unique ID : 188668156861030639258439256531160803093 (0x8DF02A501FD60905BAC818BA6B442715)
Complete name : D:\Man.on.a.Ledge.2012.1080p.BluRay.x264.DTS-HDChina .mkv
Format : Matroska
Format version : Version 2
File size : 13.9 GiB
Duration : 1h 42mn
Overall bit rate : 19.5 Mbps
Movie name : -Talian-
Encoded date : UTC 2012-05-11 21:35:27
Writing application : mkvmerge v5.3.0 ('I could have danced') built on Feb 9 2012 10:38:07
Writing library : libebml v1.2.3 + libmatroska v1.3.0

Video
ID : 1
Format : AVC
Format/Info : Advanced Video Codec
Format profile : High@L4.1
Format settings, CABAC : Yes
Format settings, ReFrames : 5 frames
Codec ID : V_MPEG4/ISO/AVC
Duration : 1h 42mn
Bit rate : 17.6 Mbps
Width : 1 920 pixels
Height : 800 pixels
Display aspect ratio : 2.40:1
Frame rate : 23.976 fps
Color space : YUV
Chroma subsampling : 4:2:0
Bit depth : 8 bits
Scan type : Progressive
Bits/(Pixel*Frame) : 0.478
Stream size : 12.3 GiB (88%)
Title : Man.on.a.Ledge.2012.1080p.BluRay.x264.DTS-HDChina
Writing library : x264 core 124 r2197 69a0443
Encoding settings : cabac=1 / ref=5 / deblock=1:-3:-3 / analyse=0x3:0x113 / me=umh / subme=11 / psy=1 / psy_rd=1.15:0.00 / mixed_ref=1 / me_range=48 / chroma_me=1 / trellis=2 / 8x8dct=1 / cqm=0 / deadzone=21,11 / fast_pskip=0 / chroma_qp_offset=-2 / threads=18 / sliced_threads=0 / nr=0 / decimate=0 / interlaced=0 / bluray_compat=0 / constrained_intra=0 / bframes=8 / b_pyramid=2 / b_adapt=2 / b_bias=0 / direct=3 / weightb=1 / open_gop=0 / weightp=2 / keyint=240 / keyint_min=24 / scenecut=40 / intra_refresh=0 / rc_lookahead=240 / rc=2pass / mbtree=1 / bitrate=17600 / ratetol=1.0 / qcomp=0.70 / qpmin=0 / qpmax=69 / qpstep=4 / cplxblur=20.0 / qblur=0.5 / ip_ratio=1.40 / aq=1:1.00
Language : English
Default : No
Forced : No

Audio #1
ID : 2
Format : AC-3
Format/Info : Audio Coding 3
Mode extension : CM (complete main)
Format settings, Endianness : Big
Codec ID : A_AC3
Duration : 1h 42mn
Bit rate mode : Constant
Bit rate : 384 Kbps
Channel(s) : 6 channels
Channel positions : Front: L C R, Side: L R, LFE
Sampling rate : 48.0 KHz
Bit depth : 16 bits
Compression mode : Lossy
Stream size : 281 MiB (2%)
Title : DUB
Language : Russian
Default : Yes
Forced : No

Audio #2
ID : 3
Format : DTS
Format/Info : Digital Theater Systems
Codec ID : A_DTS
Duration : 1h 42mn
Bit rate mode : Constant
Bit rate : 1 510 Kbps
Channel(s) : 6 channels
Channel positions : Front: L C R, Side: L R, LFE
Sampling rate : 48.0 KHz
Bit depth : 24 bits
Compression mode : Lossy
Stream size : 1.08 GiB (8%)
Title : Original
Language : English
Default : No
Forced : No

Text #1
ID : 4
Format : UTF-8
Codec ID : S_TEXT/UTF8
Codec ID/Info : UTF-8 Plain Text
Title : Sub
Language : Russian
Default : Yes
Forced : No

Text #2
ID : 5
Format : UTF-8
Codec ID : S_TEXT/UTF8
Codec ID/Info : UTF-8 Plain Text
Title : Sub
Language : English
Default : No
Forced : No

Menu
00:00:00.000 : Chapter 1
00:03:25.789 : Chapter 2
00:06:35.645 : Chapter 3
00:09:42.665 : Chapter 4
00:11:58.301 : Chapter 5
00:16:47.423 : Chapter 6
00:21:33.542 : Chapter 7
00:25:08.590 : Chapter 8
00:28:51.146 : Chapter 9
00:32:25.193 : Chapter 10
00:35:21.870 : Chapter 11
00:38:40.902 : Chapter 12
00:44:22.577 : Chapter 13
00:46:33.541 : Chapter 14
00:48:57.852 : Chapter 15
00:53:31.291 : Chapter 16
00:56:32.139 : Chapter 17
00:59:01.288 : Chapter 18
01:01:08.582 : Chapter 19
01:05:16.496 : Chapter 20
01:07:46.813 : Chapter 21
01:12:33.432 : Chapter 22
01:17:49.582 : Chapter 23
01:21:03.108 : Chapter 24
01:25:05.350 : Chapter 25
01:29:45.130 : Chapter 26
01:31:27.565 : Chapter 27
01:37:25.256 : Chapter 28
Свернуть
Не в сети
Профиль  
 Добавлено: 2012-05-22 20:42 (спустя 10 дней)
Ацкий сотона
Аватара пользователя
Стаж: 8 лет 11 месяцев
Возраст: 28
Сообщений: 819
Спасибок: 12
Лайков: 1
В кино на нём был. Фильм не шедевр, но посмотреть на 1 раз хватит.
_________________
ИзображениеИзображениеИзображениеИзображениеИзображение


Тема поднималась пользователем uzu 2012-05-22 20:42.
Не в сети
Профиль  
Начать новую темуОтветить на тему  [ Сообщений: 2 ] 
Вы не можете начинать темы
Вы не можете отвечать на сообщения
Вы не можете редактировать свои сообщения
Вы не можете удалять свои сообщения