Правила форума

  • В этом разделе создание новых тем Запрещено.
  • Для создания новых тем пользуйтесь Корневым разделом DVD и HD фильмы.
Начать новую темуОтветить на тему  [ 1 сообщение ] 
Торрент файл
Размер: 6.21 GB • Зарегистрирован: 4 года 6 месяцев • Статус: Проверено
Скачан: 99 раз • Желающих скачать: 0 • Поблагодарили: 19 раз
 Раздают: 0  |  0 KB/s  ]   Качают: 0  |  0 KB/s  ] 
 Полного источника не было 8 дней 
Сообщения
 Добавлено: 2012-05-13 18:38
Модератор
Аватара пользователя
Стаж: 8 лет
Сообщений: 1991
Спасибок: 129860
Лайков: 20
На грани / Man on a Ledge


«Только невиновного можно загнать так высоко»



Изображение
Год выпуска: 2012
Страна: Изображение США
Жанр: триллер, криминал
Продолжительность:
01:42:25

Перевод: Профессиональный (полное дублирование)

Режиссер: Асгер Лет
Сценарий: Пабло Ф. Фенджвес
Продюсер: Лоренцо Ди Бонавентура, Марк Вахрадян, Джэйк Майерс, Дэвид Рэди
Оператор: Пол Кэмерон
Композитор: Генри Джекман

В ролях:
Сэм Уортингтон (Nick Cassidy), Элизабет Бэнкс (Lydia Mercer), Джейми Белл (Joey Cassidy), Энтони Маки (Mike Ackerman), Генезис Родригез (Angie), Эд Харрис (David Englander), Эдвард Бёрнс (Jack Dougherty), Титус Уэлливер (Dante Marcus), Кира Седжвик (Suzie Morales), Мэнди Гонзалес (Manager), Барбара Марино (Screaming Woman), Дж. Смит-Камерон (Psychiatrist)
Дублёры: Денис Беспалый (Nick Cassidy) (Nick Cassidy), Ирина Киреева (Lydia Mercer) (Lydia Mercer), Андрей Бархударов (Joey Cassidy) (Joey Cassidy), Владимир Антоник (Mike Ackerman) (Mike Ackerman), Василиса Воронина (Angie) (Angie), Александр Груздев (David Englander) (David Englander), Леонид Белозорович (Jack Dougherty) (Jack Dougherty), Пётр Иващенко (Cameraman) (Cameraman), Дмитрий Курта

Описание: Экс-полицейский, обвиняемый в преступлении, которого он якобы не совершал, собирается покончить жизнь самоубийством, сбросившись с крыши одного из отелей на Манхэттене. С ним в переговоры вступает психолог нью-йоркской полиции. Напряжение нарастает с каждой минутой, на площадь стягиваются наряды спецподразделений, толпа оглашается женскими криками. А в это время на месте происшествия, прямо под носом у полиции, совершается грандиозное ограбление века: неизвестные похищают уникальные бриллианты…


Изображение: 7.231 (12 297)
Изображение: 6.70 (14 837)

MPAA: Изображение - Детям до 13 лет просмотр не желателен

Доп. Информация
Бюджет: $42 000 000
Сборы в США: $18 620 000
Сборы в России: $1 911 001
Сборы в мире: $42 644 373
Мировая премьера: 26 января 2012
Релиз на DVD: 5 июня 2012, «Парадиз Медиа»
Релиз на Blu-ray: 5 июня 2012, «Парадиз Медиа»

Свернуть

Релиз группы: Изображение
Качество: BDRip 720p R5

Формат: MKV
Видео: AVC; 1280x534 (2.40:1); 6800 Kbps; 23,976 fps; 0,415 bpp
Аудио №1: Russian; AC3; 384 Kbps; CBR; 6 ch; 16 bit
Аудио №2: English; DTS; 1509 Kbps; CBR; 6 ch; 24 bit
Субтитры №1: English
Субтитры №2: Russian
Изображение


BDInfo
General
Unique ID : 212953676705243184715152273534220781734 (0xA03562E2D03E7A52BF5DB74B3E3848A6)
Complete name : D:\HD\Man.on.a.Ledge.2012.720p.BluRay.x264.DTS-Radical.mkv
Format : Matroska
File size : 6.22 GiB
Duration : 1h 42mn
Overall bit rate : 8 699 Kbps
Encoded date : UTC 2012-05-11 17:19:43
Writing application : mkvmerge v5.3.0 ('I could have danced') built on Feb 9 2012 10:38:07
Writing library : libebml v1.2.3 + libmatroska v1.3.0
Video
ID : 1
Format : AVC
Format/Info : Advanced Video Codec
Format profile : High@L4.1
Format settings, CABAC : Yes
Format settings, ReFrames : 12 frames
Codec ID : V_MPEG4/ISO/AVC
Duration : 1h 42mn
Bit rate : 6 800 Kbps
Width : 1 280 pixels
Height : 534 pixels
Display aspect ratio : 2.35:1
Frame rate : 23.976 fps
Color space : YUV
Chroma subsampling : 4:2:0
Bit depth : 8 bits
Scan type : Progressive
Bits/(Pixel*Frame) : 0.415
Stream size : 4.74 GiB (76%)
Writing library : x264 core 124 r2197 69a0443
Encoding settings : cabac=1 / ref=12 / deblock=1:-3:-3 / analyse=0x3:0x113 / me=umh / subme=10 / psy=1 / psy_rd=1.10:0.00 / mixed_ref=1 / me_range=32 / chroma_me=1 / trellis=2 / 8x8dct=1 / cqm=0 / deadzone=21,11 / fast_pskip=0 / chroma_qp_offset=-2 / threads=18 / sliced_threads=0 / nr=0 / decimate=0 / interlaced=0 / bluray_compat=0 / constrained_intra=0 / bframes=8 / b_pyramid=2 / b_adapt=2 / b_bias=0 / direct=3 / weightb=1 / open_gop=0 / weightp=2 / keyint=240 / keyint_min=24 / scenecut=40 / intra_refresh=0 / rc_lookahead=240 / rc=2pass / mbtree=1 / bitrate=6800 / ratetol=1.0 / qcomp=0.70 / qpmin=0 / qpmax=69 / qpstep=4 / cplxblur=20.0 / qblur=0.5 / ip_ratio=1.40 / aq=1:1.00
Language : English
Audio #1
ID : 2
Format : AC-3
Format/Info : Audio Coding 3
Mode extension : CM (complete main)
Codec ID : A_AC3
Duration : 1h 42mn
Bit rate mode : Constant
Bit rate : 384 Kbps
Channel(s) : 6 channels
Channel positions : Front: L C R, Side: L R, LFE
Sampling rate : 48.0 KHz
Bit depth : 16 bits
Compression mode : Lossy
Stream size : 281 MiB (4%)
Title : Дубляж R5
Language : Russian
Audio #2
ID : 3
Format : DTS
Format/Info : Digital Theater Systems
Codec ID : A_DTS
Duration : 1h 42mn
Bit rate mode : Constant
Bit rate : 1 510 Kbps
Channel(s) : 6 channels
Channel positions : Front: L C R, Side: L R, LFE
Sampling rate : 48.0 KHz
Bit depth : 24 bits
Compression mode : Lossy
Stream size : 1.08 GiB (17%)
Language : English
Text #1
ID : 5
Format : UTF-8
Codec ID : S_TEXT/UTF8
Codec ID/Info : UTF-8 Plain Text
Language : English
Text #2
ID : 6
Format : UTF-8
Codec ID : S_TEXT/UTF8
Codec ID/Info : UTF-8 Plain Text
Language : Russian
Menu
00:00:00.000 : en:00:00:00.000
00:04:04.744 : en:00:04:04.744
00:08:02.315 : en:00:08:02.315
00:13:43.364 : en:00:13:43.364
00:17:10.029 : en:00:17:10.029
00:25:02.876 : en:00:25:02.876
00:30:20.902 : en:00:30:20.902
00:37:03.430 : en:00:37:03.430
00:44:58.529 : en:00:44:58.529
00:50:51.674 : en:00:50:51.674
00:55:50.013 : en:00:55:50.013
01:00:18.740 : en:01:00:18.740
01:06:13.511 : en:01:06:13.511
01:11:18.816 : en:01:11:18.816
01:15:50.963 : en:01:15:50.963
01:20:46.884 : en:01:20:46.884
01:25:06.977 : en:01:25:06.977
01:32:40.305 : en:01:32:40.305
Свернуть
Скриншоты
Изображение
Изображение
Изображение
Изображение
Изображение
Свернуть

_________________
Себе ты можешь не качать, но раздавать другим обязан!
Не в сети
Профиль  
Начать новую темуОтветить на тему  [ 1 сообщение ] 
Вы не можете начинать темы
Вы не можете отвечать на сообщения
Вы не можете редактировать свои сообщения
Вы не можете удалять свои сообщения