Правила форума

  • В этом разделе создание новых тем Запрещено.
  • Для создания новых тем пользуйтесь Корневым разделом DVD и HD фильмы.
Начать новую темуОтветить на тему  [ 1 сообщение ] 
Торрент файл
Размер: 9.96 GB • Зарегистрирован: 4 года 6 месяцев • Статус: Проверено
Скачан: 9 раз • Желающих скачать: 0 • Поблагодарили: 5 раз
 Раздают: 0  |  0 KB/s  ]   Качают: 0  |  0 KB/s  ] 
 Полного источника не было 2 года 1 месяц 
Сообщения
 Добавлено: 2012-05-10 21:49
Модератор
Аватара пользователя
Стаж: 8 лет
Сообщений: 1991
Спасибок: 129860
Лайков: 20
На гребне волны / Point Break


«27 banks in three years - anything to catch the perfect wave!»



Изображение
Год выпуска: 1991
Страна: Изображение США, Изображение Япония
Жанр: боевик, триллер, криминал
Продолжительность:
02:02:05

Перевод: Профессиональный (одноголосый), Профессиональный (двухголосый), Профессиональный (многоголосый, закадровый), Профессиональный (полное дублирование), Авторский (одноголосый)

Режиссер: Кэтрин Бигелоу
Сценарий: В. Питер Айлифф, Рик Кинг
Продюсер: Питер Абрамс, Роберт Л. Леви, Джеймс Кэмерон, Рик Кинг, Майкл Ройч
Оператор: Дональд Питермен
Композитор: Марк Айшем

В ролях:
Патрик Суэйзи (Bodhi), Киану Ривз (Johnny Utah), Гэри Бьюзи (Pappas), Лори Петти (Tyler), Джон К. МакГинли (Ben Harp, (as John McGinley)), Джеймс ЛеГро (Roach, (as James Le Gros)), Джон Филбин (Nathanial), Боджесси Кристофер (Grommet), Джулиан Рейес (Alvarez), Дэниэл Бир (Babbit), Крис Пидерсен (Bunker), Винсент Клин (Warchild)
Дублёры: Владислав Пупков (Johnny Utah) (Johnny Utah), Виталий Дорошенко (Pappas) (Pappas), Людмила Логийко (Tyler) (Tyler)

Описание: Таинственная банда серфингистов, среди белого дня, совершает ограбления банков. Полиция и ФБР поражены профессиональностью и скоростью проведения преступлений.
Следствие ведет молодой и претенциозный агент ФБР, который, рискуя жизнью, внедряется в банду и раскрывает это дело, но неожиданно для самого себя он осознает, что вернуться к нормальной жизни он уже не сможет.


Изображение: 7.868 (21 062)
Изображение: 6.90 (53 114)

MPAA: Изображение - Лицам до 17 лет обязательно присутствие взрослого

Доп. Информация
Бюджет: $24 000 000
Сборы в США: $43 218 387
Сборы в мире: $83 531 958
Мировая премьера: 12 июля 1991
Релиз на DVD: 11 ноября 2008, «Парадиз Медиа»

Свернуть

Релиз группы: Изображение
Качество: BDRip 720p R5

Формат: MKV
Видео: AVC; 1280x542 (2.35:1); 6833 Kbps; 23,976 fps; 0,411 bpp
Аудио#1: Russian: 48 kHz, AC3, 2/0 (L,R) ch, ~192 kbps avg |Дубляж, Хлопушка|
Аудио#2: Russian: 48 kHz, AC3, 3/2 (L,C,R,l,r) + LFE ch, ~640 kbps avg |Многоголосый закадровый, Киномания|
Аудио#3: Russian: 48 kHz, AC3, 2/0 (L,R) ch, ~192 kbps avg |Многоголосый закадровый, РТР|
Аудио#4: Russian: 48 kHz, AC3, 2/0 (L,R) ch, ~192 kbps avg |Многоголосый закадровый, ТВ3|
Аудио#5: Russian: 48 kHz, AC3, 3/2 (L,C,R,l,r) + LFE ch, ~640 kbps avg |Двухголосый закадровый, П. Гланц и И. Королева|
Аудио#6: Russian: 48 kHz, AC3, 2/0 (L,R) ch, ~192 kbps avg |Двухголосый закадровый, Премьер-Видео|
Аудио#7: Russian: 48 kHz, AC3, 3/2 (L,C,R,l,r) + LFE ch, ~640 kbps avg |Одноголосый закадровый, А. Гаврилов|
Аудио#8: Russian: 48 kHz, AC3, 3/2 (L,C,R,l,r) + LFE ch, ~640 kbps avg |Одноголосый закадровый, Ю. Живов|
Аудио#9: Russian: 48 kHz, AC3, 3/2 (L,C,R,l,r) + LFE ch, ~640 kbps avg |Одноголосый закадровый, А. Багичев|
Аудио#10: English: 48 kHz, AC3, 3/2 (L,C,R,l,r) + LFE ch, ~640 kbps avg
Субтитры №1: Russian
Субтитры №2: English



Знаете ли Вы, что...
  • Чтобы лучше подготовиться к роли, Кеану Ривз продолжительное время изучал работу агентов ФБР в Лос-Анджелесе. Он также занимался с профессиональным тренером по американскому футболу.
  • Мэттью Бродерик мог исполнить роль Джонни Юты.
  • Специально для фильма Киану Ривз научился кататься на доске для серфинга.
  • Количество трупов: 12.
  • Маски, которые используют грабители, — карикатуры на бывших президентов США: Джимми Картера, Ричарда Никсона и Линдона Джонсона.
  • Автомобильный номер пикапа Юты в концовке фильма — 549 956 EUE.
  • Во время захвата наркоторговцев на одной из стен можно заметить постер сингла группы «Metallica» — «One».
  • Когда Джонни рассказывает Анджело о передвижении Боуди по городу, он говорит, что последний заходил пообедать в ресторан «Patrick’s Roadhouse». Это — реально-существующий ресторан в Лос-Анджелесе. Это — также ссылка на фильм «Придорожная закусочная» (1989), где Патрик Суэйзи сыграл главную роль.
  • Элизабет Беркли исполнила небольшую роль в фильме, но сцена с её участием была вырезана.
  • В сцене разговора на пляже между Боуди (Патрик Суэйзи) и Джонни Ютой (Киану Ривз), Боуди говорит, что доска Юты напоминает ему старенький «Шевроллет» модели 1957 года. В «Грязных танцах» (1987) персонаж Суэйзи ездил именно на такой машине.
  • Слово «fuck» произносится по ходу действия фильма 105 раз.
  • Изначально фильм должен был называться «Riders On The Storm».
  • Point break - это благоприятные для серфинга условия, создаваемые каким-либо выступающим участком суши (point) - мысом или волнорезом. Об этот выступ разбивается (break) накатывающая с открытого океана волна. Рожденные в результате новые волны отличаются стабильной частотой и силой. Кроме того, создается зона штиля, которую серфингисты используют, чтобы подгрести к тому месту, где начинаются большие волны.
  • В фильме героя Суэйзи зовут Бодхи, что является сокращением имени Бодхисатва. Бодхисатвой, согласно буддийской мифологии, называется тот, кто стремится к духовному просветлению.
Свернуть
BDInfo
General
Unique ID : 180150990142929689324222987045981442726 (0x8787D19291DF07F5B1102D92E96CD2A6)
Complete name : Point.Break.1991.720p.BluRay.9xRus.Eng.HDCLUB-Skazhutin.mkv
Format : Matroska
Format version : Version 2
File size : 9.96 GiB
Duration : 2h 2mn
Overall bit rate : 11.7 Mbps
Movie name : Point Break (1991) - Release for HDCLUB by Skazhutin
Encoded date : UTC 2012-05-09 10:29:48
Writing application : mkvmerge v5.5.0 ('Healer') built on Apr 6 2012 21:43:24
Writing library : libebml v1.2.3 + libmatroska v1.3.0
Attachment : Yes / Yes

Video
ID : 1
Format : AVC
Format/Info : Advanced Video Codec
Format profile : High@L4.1
Format settings, CABAC : Yes
Format settings, ReFrames : 11 frames
Codec ID : V_MPEG4/ISO/AVC
Duration : 2h 2mn
Bit rate : 6 834 Kbps
Width : 1 280 pixels
Height : 542 pixels
Display aspect ratio : 2.35:1
Frame rate : 23.976 fps
Color space : YUV
Chroma subsampling : 4:2:0
Bit depth : 8 bits
Scan type : Progressive
Bits/(Pixel*Frame) : 0.411
Stream size : 5.83 GiB (59%)
Title : Release for HDCLUB
Writing library : x264 core 124 r2197 69a0443
Encoding settings : cabac=1 / ref=11 / deblock=1:-3:-3 / analyse=0x3:0x113 / me=umh / subme=11 / psy=1 / psy_rd=1.00:0.00 / mixed_ref=1 / me_range=48 / chroma_me=1 / trellis=2 / 8x8dct=1 / cqm=0 / deadzone=21,11 / fast_pskip=1 / chroma_qp_offset=-2 / threads=12 / sliced_threads=0 / nr=0 / decimate=1 / interlaced=0 / bluray_compat=0 / constrained_intra=0 / bframes=9 / b_pyramid=2 / b_adapt=2 / b_bias=0 / direct=1 / weightb=1 / open_gop=0 / weightp=2 / keyint=250 / keyint_min=23 / scenecut=40 / intra_refresh=0 / rc_lookahead=60 / rc=crf / mbtree=1 / crf=19.0 / qcomp=0.80 / qpmin=0 / qpmax=69 / qpstep=4 / vbv_maxrate=50000 / vbv_bufsize=62500 / crf_max=0.0 / nal_hrd=none / ip_ratio=1.10 / aq=1:1.00
Language : English
Default : Yes
Forced : No
Matrix coefficients : BT.709-5, BT.1361, IEC 61966-2-4 709, SMPTE RP177

Audio #1
ID : 2
Format : AC-3
Format/Info : Audio Coding 3
Mode extension : CM (complete main)
Format settings, Endianness : Big
Codec ID : A_AC3
Duration : 2h 2mn
Bit rate mode : Constant
Bit rate : 192 Kbps
Channel(s) : 2 channels
Channel positions : Front: L R
Sampling rate : 48.0 KHz
Bit depth : 16 bits
Compression mode : Lossy
Stream size : 168 MiB (2%)
Title : AC3 2.0 @ 192 kbps - Дублированный, Хлопушка
Language : Russian
Default : Yes
Forced : No

Audio #2
ID : 3
Format : AC-3
Format/Info : Audio Coding 3
Mode extension : CM (complete main)
Format settings, Endianness : Big
Codec ID : A_AC3
Duration : 2h 2mn
Bit rate mode : Constant
Bit rate : 640 Kbps
Channel(s) : 6 channels
Channel positions : Front: L C R, Side: L R, LFE
Sampling rate : 48.0 KHz
Bit depth : 16 bits
Compression mode : Lossy
Stream size : 559 MiB (5%)
Title : AC3 5.1 @ 640 kbps - Многоголосый, Киномания
Language : Russian
Default : No
Forced : No

Audio #3
ID : 4
Format : AC-3
Format/Info : Audio Coding 3
Mode extension : CM (complete main)
Format settings, Endianness : Big
Codec ID : A_AC3
Duration : 2h 2mn
Bit rate mode : Constant
Bit rate : 192 Kbps
Channel(s) : 2 channels
Channel positions : Front: L R
Sampling rate : 48.0 KHz
Bit depth : 16 bits
Compression mode : Lossy
Stream size : 168 MiB (2%)
Title : AC3 2.0 @ 192 kbps - Многоголосый, РТР
Language : Russian
Default : No
Forced : No

Audio #4
ID : 5
Format : AC-3
Format/Info : Audio Coding 3
Mode extension : CM (complete main)
Format settings, Endianness : Big
Codec ID : A_AC3
Duration : 2h 2mn
Bit rate mode : Constant
Bit rate : 192 Kbps
Channel(s) : 2 channels
Channel positions : Front: L R
Sampling rate : 48.0 KHz
Bit depth : 16 bits
Compression mode : Lossy
Stream size : 168 MiB (2%)
Title : AC3 2.0 @ 192 kbps - Многоголосый, ТВ3
Language : Russian
Default : No
Forced : No

Audio #5
ID : 6
Format : AC-3
Format/Info : Audio Coding 3
Mode extension : CM (complete main)
Format settings, Endianness : Big
Codec ID : A_AC3
Duration : 2h 2mn
Bit rate mode : Constant
Bit rate : 640 Kbps
Channel(s) : 6 channels
Channel positions : Front: L C R, Side: L R, LFE
Sampling rate : 48.0 KHz
Bit depth : 16 bits
Compression mode : Lossy
Stream size : 559 MiB (5%)
Title : AC3 5.1 @ 640 kbps - Двухголосый, П. Гланц и Н. Королёва
Language : Russian
Default : No
Forced : No

Audio #6
ID : 7
Format : AC-3
Format/Info : Audio Coding 3
Mode extension : CM (complete main)
Format settings, Endianness : Big
Codec ID : A_AC3
Duration : 2h 2mn
Bit rate mode : Constant
Bit rate : 192 Kbps
Channel(s) : 2 channels
Channel positions : Front: L R
Sampling rate : 48.0 KHz
Bit depth : 16 bits
Compression mode : Lossy
Stream size : 168 MiB (2%)
Title : AC3 2.0 @ 192 kbps - Двухголосый, Премьер-Видео
Language : Russian
Default : No
Forced : No

Audio #7
ID : 8
Format : AC-3
Format/Info : Audio Coding 3
Mode extension : CM (complete main)
Format settings, Endianness : Big
Codec ID : A_AC3
Duration : 2h 2mn
Bit rate mode : Constant
Bit rate : 640 Kbps
Channel(s) : 6 channels
Channel positions : Front: L C R, Side: L R, LFE
Sampling rate : 48.0 KHz
Bit depth : 16 bits
Compression mode : Lossy
Stream size : 559 MiB (5%)
Title : AC3 5.1 @ 640 kbps - Одноголосый, А. Гаврилов
Language : Russian
Default : No
Forced : No

Audio #8
ID : 9
Format : AC-3
Format/Info : Audio Coding 3
Mode extension : CM (complete main)
Format settings, Endianness : Big
Codec ID : A_AC3
Duration : 2h 2mn
Bit rate mode : Constant
Bit rate : 640 Kbps
Channel(s) : 6 channels
Channel positions : Front: L C R, Side: L R, LFE
Sampling rate : 48.0 KHz
Bit depth : 16 bits
Compression mode : Lossy
Stream size : 559 MiB (5%)
Title : AC3 5.1 @ 640 kbps - Одноголосый, Ю. Живов
Language : Russian
Default : No
Forced : No

Audio #9
ID : 10
Format : AC-3
Format/Info : Audio Coding 3
Mode extension : CM (complete main)
Format settings, Endianness : Big
Codec ID : A_AC3
Duration : 2h 2mn
Bit rate mode : Constant
Bit rate : 640 Kbps
Channel(s) : 6 channels
Channel positions : Front: L C R, Side: L R, LFE
Sampling rate : 48.0 KHz
Bit depth : 16 bits
Compression mode : Lossy
Stream size : 559 MiB (5%)
Title : AC3 5.1 @ 640 kbps - Одноголосый, А. Багичев
Language : Russian
Default : No
Forced : No

Audio #10
ID : 11
Format : AC-3
Format/Info : Audio Coding 3
Mode extension : CM (complete main)
Format settings, Endianness : Big
Codec ID : A_AC3
Duration : 2h 2mn
Bit rate mode : Constant
Bit rate : 640 Kbps
Channel(s) : 6 channels
Channel positions : Front: L C R, Side: L R, LFE
Sampling rate : 48.0 KHz
Bit depth : 16 bits
Compression mode : Lossy
Stream size : 559 MiB (5%)
Title : AC3 5.1 @ 640 kbps
Language : English
Default : No
Forced : No

Text #1
ID : 12
Format : UTF-8
Codec ID : S_TEXT/UTF8
Codec ID/Info : UTF-8 Plain Text
Language : Russian
Default : No
Forced : No

Text #2
ID : 13
Format : UTF-8
Codec ID : S_TEXT/UTF8
Codec ID/Info : UTF-8 Plain Text
Language : English
Default : No
Forced : No

Menu
00:00:00.000 : en:Main Titles
00:03:08.187 : en:First Day in L.A.
00:06:18.336 : en:The Ex-Presidents
00:09:38.160 : en:Theory
00:13:25.221 : en:First Time on the Board
00:16:44.128 : en:Tyler Endicott
00:20:59.007 : en:Surfing Lessons
00:24:04.734 : en:Hair Samples
00:27:35.945 : en:Acceptance
00:31:05.822 : en:Latigo Beach
00:39:00.588 : en:The Party
00:43:33.694 : en:Indescribable Feelings
00:49:32.886 : en:The Raid
00:58:36.220 : en:A Feeling
01:02:16.566 : en:Can't Take the Shot
01:10:29.558 : en:Truth
01:16:42.222 : en:Skydiving
01:23:43.475 : en:Blackmail
01:27:15.939 : en:Ninety Seconds
01:34:51.310 : enappas Dies
01:41:14.276 : en:Rescuing Tyler
01:50:13.689 : en:Bells Beach
01:55:20.955 : en:This Moment
01:58:36.442 : en:End Titles
Свернуть
Скриншоты
Изображение
Изображение
Изображение
Изображение
Изображение
Свернуть

_________________
Себе ты можешь не качать, но раздавать другим обязан!
Не в сети
Профиль  
Начать новую темуОтветить на тему  [ 1 сообщение ] 
Вы не можете начинать темы
Вы не можете отвечать на сообщения
Вы не можете редактировать свои сообщения
Вы не можете удалять свои сообщения