Правила форума

  • В этом разделе создание новых тем Запрещено.
  • Для создания новых тем пользуйтесь Корневым разделом DVD и HD фильмы.
Начать новую темуОтветить на тему  [ Сообщений: 2 ] 
Торрент файл
Размер: 13.36 GB • Зарегистрирован: 3 года 9 месяцев • Статус: Проверено
Скачан: 82 раза • Желающих скачать: 0 • Поблагодарили: 27 раз
 Раздают: 0  |  0 KB/s  ]   Качают: 0  |  0 KB/s  ] 
 Полного источника не было 1 день 17 часов 
Сообщения
 Добавлено: 2013-02-08 08:53
Top-releaser
Аватара пользователя
Стаж: 6 лет 7 месяцев
Сообщений: 2078
Спасибок: 3229
Лайков: 9
Изображение

На крючке
Eagle Eye


Год выпуска: 2008
Страна: США, Германия
Слоган: «Хочешь жить - делай что говорят»
Жанр: фантастика, боевик, триллер, детектив
Продолжительность: 01:57:35
Перевод: Профессиональный (полное дублирование)
Режиссер: Ди Джей Карузо
Сценарий: Дэн МакДермотт, Джон Гленн, Трэвис Райт, Хиллари Сайц
Продюсер: Патрик Краули, Алекс Куртцман, Роберто Орси, Пит Чиарелли, Джеймс М. Фрейтаг
Оператор: Дариуш Вольски
Композитор: Брайан Тайлер
В ролях: Шайа ЛаБаф, Мишель Монахэн, Билли Боб Торнтон, Розарио Доусон, Майкл Чиклис, Энтони Маки, Итэн Эмбри, Энтони Азизи, Камерон Бойс, Линн Коэн, Билл Смитрович, Чарльз Кэррол
Бюджет: $80 000 000
Сборы в США: $101 440 743
Сборы в России: $4 649 700
Сборы в мире: $178 066 569
Мировая премьера: 16 сентября 2008
Релиз на DVD: 3 февраля 2009, «Юниверсал Пикчерс Рус»
Релиз на Blu-ray: 12 мая 2009, «Юниверсал Пикчерс Рус»
Описание: Юный бездельник живет беззаботной жизнью, в отличие от своего брата-близнеца, стремящегося добиться успеха во всех сферах жизни, пока... тот не погибает при загадочных обстоятельствах. В то же время у матери-одиночки Рэйчел пропадает ребенок, и, вскоре, незнакомцы обнаруживают, что их подставили и выставили террористами. Насильно внедренные в группировку, планирующую серию убийств, они вынуждены вместе искать пути к спасению своей жизни...
Раздача группы:
Изображение

Изображение User Rating: 7.537 (32 012)
Изображение User Rating: 6.60 (103 595)
MPAA: PG-13 - Детям до 13 лет просмотр не желателен
Качество: BDRip, 1080p
Формат: MKV
Видео: AVC; 1920x800 (2.40:1); 13989 Kbps; 23,976 fps; 0,380 bit/pixel
Аудио №1: русский; AC3; 448 Kbps; CBR; 6 ch
Аудио №2: английский; DTS; 1510 Kbps; CBR; 6 ch; 24 bit

Субтитры: английские
mediainfo
Общее
Уникальный идентификатор : 200297596493387029290833089634797055198 (0x96AFE9F488AB0D089DBEEA85E68B6CDE)
Полное имя : Z:\WWW\TR-Downloads\Eagle.Eye.2008.BluRay.1080p.x264.DTS.Rus-WiKi.mkv
Формат : Matroska
Версия формата : Version 1
Размер файла : 13,4 Гбайт
Продолжительность : 1 ч. 57 м.
Общий поток : 16,3 Мбит/сек
Дата кодирования : UTC 2009-01-29 20:19:57
Программа кодирования : mkvmerge v2.3.0 ('Freak U') built on Sep 8 2008 18:32:16
Библиотека кодирования : libebml v0.7.7 + libmatroska v0.8.1

Видео
Идентификатор : 1
Формат : AVC
Формат/Информация : Advanced Video Codec
Профиль формата : High@L4.1
Параметр CABAC формата : Да
Параметр ReFrames формата : 5 кадров
Идентификатор кодека : V_MPEG4/ISO/AVC
Продолжительность : 1 ч. 57 м.
Битрейт : 14,3 Мбит/сек
Ширина : 1920 пикселей
Высота : 800 пикселей
Соотношение сторон : 2,40:1
Частота кадров : 23,976 кадра/сек
Цветовое пространство : YUV
Субдискретизация насыщенности : 4:2:0
Битовая глубина : 8 бит
Тип развёртки : Прогрессивная
Бит/(Пиксели*Кадры) : 0.389
Размер потока : 11,5 Гбайт (86%)
Библиотека кодирования : x264 core 65 r1046M 71d34b4
Настройки программы : cabac=1 / ref=5 / deblock=1:-2:-1 / analyse=0x3:0x113 / me=umh / subme=6 / psy_rd=1.0:0.0 / mixed_ref=1 / me_range=16 / chroma_me=1 / trellis=1 / 8x8dct=1 / cqm=0 / deadzone=21,11 / chroma_qp_offset=-2 / threads=12 / nr=0 / decimate=1 / mbaff=0 / bframes=16 / b_pyramid=1 / b_adapt=1 / b_bias=0 / direct=3 / wpredb=1 / keyint=250 / keyint_min=25 / scenecut=40(pre) / rc=2pass / bitrate=14312 / ratetol=1.0 / qcomp=0.60 / qpmin=10 / qpmax=51 / qpstep=4 / cplxblur=20.0 / qblur=0.5 / ip_ratio=1.40 / pb_ratio=1.30 / aq=1:1.00
Язык : English
Default : Да
Forced : Нет

Аудио #1
Идентификатор : 2
Формат : AC-3
Формат/Информация : Audio Coding 3
Расширение режима : CM (complete main)
Параметр Endianness формата : Big
Идентификатор кодека : A_AC3
Продолжительность : 1 ч. 57 м.
Вид битрейта : Постоянный
Битрейт : 448 Кбит/сек
Каналы : 6 каналов
Расположение каналов : Front: L C R, Side: L R, LFE
Частота : 48,0 КГц
Битовая глубина : 16 бит
Метод сжатия : С потерями
Задержка видео : 1 с. 344 мс.
Размер потока : 377 Мбайт (3%)
Заголовок : AC3, 6ch 448 k
Язык : Russian
Default : Да
Forced : Нет

Аудио #2
Идентификатор : 3
Формат : DTS
Формат/Информация : Digital Theater Systems
Идентификатор кодека : A_DTS
Продолжительность : 1 ч. 57 м.
Вид битрейта : Постоянный
Битрейт : 1510 Кбит/сек
Каналы : 6 каналов
Расположение каналов : Front: L C R, Side: L R, LFE
Частота : 48,0 КГц
Битовая глубина : 24 бит
Метод сжатия : С потерями
Размер потока : 1,24 Гбайт (9%)
Заголовок : DTS, 6ch 1536 kbps
Язык : English
Default : Нет
Forced : Нет

Текст
Идентификатор : 4
Формат : UTF-8
Идентификатор кодека : S_TEXT/UTF8
Идентификатор кодека/Информация : UTF-8 Plain Text
Язык : English
Default : Да
Forced : Нет
Свернуть
"Знаете ли Вы, что..."
  • «Орлиный глаз» (оригинальное американское название) поставлен по рассказу Стивена Спилберга, который и должен был снимать ленту. Но режиссер отвлекся на четвертого «Индиану Джонса» и передал штурвал Карузо, оставшись лишь исполнительным продюсером.
  • В фильме можно заметить DVD-диск с фильмом «Паранойя», предыдущей работой D.J. Карузо и Шайи ЛаБафа.
  • Съемки начались 6 ноября 2007 года и были завершены в феврале 2008 года.
  • Когда появляется список фильмов, которые Джерри Шоу то ли покупал, то ли брал чаще всего можно заметить такие фильмы, как «Вечное сияние чистого разума», «Бойцовский клуб», «Город Бога» и 2 фильма Стэнли Кубрика: «Цельнометаллическая оболочка» и «Космическая одиссея 2001».
  • В отделе бытовой техники, куда заходят Рэйчел и Джерри, на всех экранах проигрывается фильм «Монстро», вышедший весной того же года.
Свернуть
Скриншоты

Изображение
Изображение
Изображение
Изображение
Изображение
Свернуть
Не в сети
Профиль  
 Добавлено: 2014-10-16 12:23 (спустя 1 год 8 месяцев)
Аватара пользователя
Стаж: 5 лет 5 месяцев
Возраст: 23
Сообщений: 484
Спасибок: 1403
Лайков: 1
встаньте на раздачу плиз :)
Не в сети
Профиль  
Начать новую темуОтветить на тему  [ Сообщений: 2 ] 
Вы не можете начинать темы
Вы не можете отвечать на сообщения
Вы не можете редактировать свои сообщения
Вы не можете удалять свои сообщения